(Musical/Rock) [CD] VA: Andrew Lloyd Webber & Tim Rice - Jesus Christ Superstar (Ian Gillan, Mike D\'Abo, Yvonne Elliman and Others) (USA Original, MCA Records MCAD2-11542) - 1993, FLAC (image+.cue), lossless

Reply to topic
DL-List and Torrent activity [Update пиров]
Size:  614 MB   |    Registered:  2 years 2 months   |    Completed:  1 time

Seeder not seen: 1 year 6 months

 
   
 
 
 
Author Message

Roni

Post 11-Sep-2017 17:12

[Quote]

VA: Andrew Lloyd Webber & Tim Rice - Jesus Christ Superstar- -Жанр: Rock-Musical
Страна-производитель диска: USA
Год издания альбома: 1970/1993
Лейбл: MCA Records
Номер по каталогу: MCAD2-11542
Аудио кодек: FLAC (*.flac)
Тип рипа: image+.cue
Битрейт аудио: lossless
Продолжительность: 01:17:11
Источник: Torrentc dafnaplus
Наличие сканов в содержимом раздачи: да, dpi 600

Disc 1


Продолжительность: 43:54
Трэклист:
01. Overture 3:59
02. Heaven On Their Minds 4:22
03. What's The Buzz/Strange Thing Mystifying 4:14
04. Everything's Alright 5:15
05. This Jesus Must Die 3:35
06. Hosanna 2:09
07. Simon Zealotes/Poor Jerusalem 4:48
08. Pilate's Dream 1:29
09. The Temple 4:44
10. Everything's Alright 0:29
11. I Don't Know How To Love Him 3:41
12. Damned For All Time/Blood Money 5:10

Лог EAC

Exact Audio Copy V1.3 from 2. September 2016
EAC extraction logfile from 6. March 2017, 23:10
Various Artists / Jesus Christ Superstar (Disc 1) (MCAD2-11542)
Used drive : PLEXTOR DVDR PX-891SA Adapter: 1 ID: 0
Read mode : SecureUtilize accurate stream : YesDefeat audio cache : YesMake use of C2 pointers : No
Read offset correction : 6Overread into Lead-In and Lead-Out : NoFill up missing offset samples with silence : YesDelete leading and trailing silent blocks : NoNull samples used in CRC calculations : YesUsed interface : Native Win32 interface for Win NT & 2000
Used output format : User Defined EncoderSelected bitrate : 128 kBit/sQuality : HighAdd ID3 tag : NoCommand line compressor : C:\Program Files (x86)\Exact Audio Copy\Flac\flac.exeAdditional command line options : -V -8 -T "Genre=%genre%" -T "Artist=%artist%" -T "Title=%title%" -T "Album=%albumtitle%" -T "Date=%year%" -T "Tracknumber=%tracknr%" -T "Comment=%comment%" %source%
TOC of the extracted CD
Track | Start | Length | Start sector | End sector --------------------------------------------------------- 1 | 0:00.00 | 3:58.72 | 0 | 17921 2 | 3:58.72 | 4:22.35 | 17922 | 37606 3 | 8:21.32 | 4:14.00 | 37607 | 56656 4 | 12:35.32 | 5:14.53 | 56657 | 80259 5 | 17:50.10 | 3:34.40 | 80260 | 96349 6 | 21:24.50 | 2:09.04 | 96350 | 106028 7 | 23:33.54 | 4:47.71 | 106029 | 127624 8 | 28:21.50 | 1:28.45 | 127625 | 134269 9 | 29:50.20 | 4:43.50 | 134270 | 155544 10 | 34:33.70 | 0:29.20 | 155545 | 157739 11 | 35:03.15 | 3:40.40 | 157740 | 174279 12 | 38:43.55 | 5:09.72 | 174280 | 197526
Range status and errors
Selected range
Filename H:\dafnaplus\Jesus Christ Superstar\Disc 1\Various Artists - Jesus Christ Superstar (Disc 1) (MCAD2-11542).wav
Peak level 94.1 % Extraction speed 7.8 X Range quality 100.0 % Test CRC 83083635 Copy CRC 83083635 Copy OK
No errors occurred
AccurateRip summary
Track 1 accurately ripped (confidence 32) [E9DF66EC] (AR v2)Track 2 accurately ripped (confidence 30) [9A4AE2C4] (AR v2)Track 3 accurately ripped (confidence 31) [C21CF1B1] (AR v2)Track 4 accurately ripped (confidence 30) [AB275EC7] (AR v2)Track 5 accurately ripped (confidence 30) [92CE0FE8] (AR v2)Track 6 accurately ripped (confidence 31) [5A39015E] (AR v2)Track 7 accurately ripped (confidence 30) [82A32B0D] (AR v2)Track 8 accurately ripped (confidence 31) [957A9444] (AR v2)Track 9 accurately ripped (confidence 31) [3967B815] (AR v2)Track 10 accurately ripped (confidence 31) [708A0BA6] (AR v2)Track 11 accurately ripped (confidence 31) [B1BD56E0] (AR v2)Track 12 accurately ripped (confidence 31) [312AAF71] (AR v2)
All tracks accurately ripped
End of status report
---- CUETools DB Plugin V2.1.6
[CTDB TOCID: 7PDfrElhv3gNtSEw2x9vGLvN37Q-] foundSubmit result: already submittedTrack | CTDB Status 1 | (80/82) Accurately ripped 2 | (80/82) Accurately ripped 3 | (82/82) Accurately ripped 4 | (81/82) Accurately ripped 5 | (81/82) Accurately ripped 6 | (82/82) Accurately ripped 7 | (81/82) Accurately ripped 8 | (82/82) Accurately ripped 9 | (81/82) Accurately ripped 10 | (82/82) Accurately ripped 11 | (79/82) Accurately ripped 12 | (78/82) Accurately ripped
==== Log checksum F0E6E9EC621E7201378DB9503442F7059AF602A0341562B6A60AD7ABBB0F93D3 ====

Matrix

Disc 2


Продолжительность: 43:17
Трэклист:
01. The Last Supper 7:08
02. Gethsemane (I Only Want To Say) 5:34
03. The Arrest 3:21
04. Peter's Denial 1:28
05. Pilate And Christ 2:44
06. King Herod's Song (Try It And See) 3:03
07. Judas' Death 4:15
08. Trial Before Pilate (Including The 39 Lashes) 5:14
09. Superstar 4:16
10. Crucifixion 4:07
11. John Nineteen Forty-One 2:08

Лог EAC

Exact Audio Copy V1.3 from 2. September 2016
EAC extraction logfile from 6. March 2017, 22:47
Various Artists / Jesus Christ Superstar (Disc 2) (MCAD2-11542)
Used drive : PLEXTOR DVDR PX-891SA Adapter: 1 ID: 0
Read mode : SecureUtilize accurate stream : YesDefeat audio cache : YesMake use of C2 pointers : No
Read offset correction : 6Overread into Lead-In and Lead-Out : NoFill up missing offset samples with silence : YesDelete leading and trailing silent blocks : NoNull samples used in CRC calculations : YesUsed interface : Native Win32 interface for Win NT & 2000
Used output format : User Defined EncoderSelected bitrate : 128 kBit/sQuality : HighAdd ID3 tag : NoCommand line compressor : C:\Program Files (x86)\Exact Audio Copy\Flac\flac.exeAdditional command line options : -V -8 -T "Genre=%genre%" -T "Artist=%artist%" -T "Title=%title%" -T "Album=%albumtitle%" -T "Date=%year%" -T "Tracknumber=%tracknr%" -T "Comment=%comment%" %source%
TOC of the extracted CD
Track | Start | Length | Start sector | End sector --------------------------------------------------------- 1 | 0:00.00 | 7:08.20 | 0 | 32119 2 | 7:08.20 | 5:33.44 | 32120 | 57138 3 | 12:41.64 | 3:21.16 | 57139 | 72229 4 | 16:03.05 | 1:28.20 | 72230 | 78849 5 | 17:31.25 | 2:43.67 | 78850 | 91141 6 | 20:15.17 | 3:02.48 | 91142 | 104839 7 | 23:17.65 | 4:15.37 | 104840 | 124001 8 | 27:33.27 | 5:13.38 | 124002 | 147514 9 | 32:46.65 | 4:15.50 | 147515 | 166689 10 | 37:02.40 | 4:06.40 | 166690 | 185179 11 | 41:09.05 | 2:07.62 | 185180 | 194766
Range status and errors
Selected range
Filename H:\dafnaplus\Jesus Christ Superstar\Disc 2\Various Artists - Jesus Christ Superstar (Disc 2) (MCAD2-11542).wav
Peak level 96.2 % Extraction speed 7.2 X Range quality 99.9 % Test CRC A7273878 Copy CRC A7273878 Copy OK
No errors occurred
AccurateRip summary
Track 1 accurately ripped (confidence 30) [3A5E3BF7] (AR v2)Track 2 accurately ripped (confidence 30) [8BC83A2E] (AR v2)Track 3 accurately ripped (confidence 30) [2A6D3EE7] (AR v2)Track 4 accurately ripped (confidence 30) [CA8365A0] (AR v2)Track 5 accurately ripped (confidence 30) [5229BE1F] (AR v2)Track 6 accurately ripped (confidence 30) [828D980A] (AR v2)Track 7 accurately ripped (confidence 30) [97055164] (AR v2)Track 8 accurately ripped (confidence 30) [5CBD78B1] (AR v2)Track 9 accurately ripped (confidence 30) [34BDDF10] (AR v2)Track 10 accurately ripped (confidence 30) [001735EB] (AR v2)Track 11 accurately ripped (confidence 30) [09E92847] (AR v2)
All tracks accurately ripped
End of status report
---- CUETools DB Plugin V2.1.6
[CTDB TOCID: fKGxV9EVZ6.ZygDyc9O1yFu8TzI-] foundSubmit result: already submittedTrack | CTDB Status 1 | (78/83) Accurately ripped 2 | (78/83) Accurately ripped 3 | (80/83) Accurately ripped 4 | (82/83) Accurately ripped 5 | (81/83) Accurately ripped 6 | (81/83) Accurately ripped 7 | (81/83) Accurately ripped 8 | (80/83) Accurately ripped 9 | (81/83) Accurately ripped 10 | (80/83) Accurately ripped 11 | (83/83) Accurately ripped
==== Log checksum B3EE2D63DE1E1F287790F07433650E0285822ED5B2E5B81F863F2DC3E87857DD ====

Matrix



[geo-torrent.biz]_t_5451255.torrent
Torrent: Registered ·  [ 2017-09-11 17:12 ] ·  3510dc154de260b1408e0c72f117074e95e23cb2

14 KB

Status: checked
Completed: 1 times
Size: 614 MB
Rating: 
(Votes: 0)
Say thanks: 0  Thanks
Похожие темы
[Profile]    [PM]
Display posts from previous:    
Reply to topic

The time now is: Today 12:25

All times are GMT + 7 Hours



You cannot post new topics in this forum
You cannot reply to topics in this forum
You cannot edit your posts in this forum
You cannot delete your posts in this forum
You cannot vote in polls in this forum
You cannot attach files in this forum
You can download files in this forum