(Electro, Breakbeat) [CD] Unyx - Sequenzerkiller - 2000, FLAC (tracks+.cue), lossless

Reply to topic
DL-List and Torrent activity [Update пиров]
Size:  347 MB   |    Registered:  2 years 4 months   |    Completed:  0 times

Seeder not seen: Never

 
   
 
 
 
Author Message

Генри

Post 11-Oct-2017 22:52

[Quote]

Unyx / Sequenzerkiller
Жанр: Electro, Breakbeat
Носитель: CD
Страна-производитель диска (релиза): Netherlands
Год издания: 2000
Издатель (лейбл): Djax-X-Beats
Номер по каталогу: DJAX-X-725
Аудиокодек: FLAC (*.flac)
Тип рипа: tracks+.cue
Битрейт аудио: lossless
Продолжительность: 52:03
Источник (релизер): Рип с диска из собственной коллекции.
Наличие сканов в содержимом раздачи: нет
Треклист:
1 Home Justice 4:27
2 Six Million Waves 4:15
3 Wrong Job Remix 5:20
4 Funk 29 3:39
5 Nothing New Chief 4:05
6 Shelter For Love (Fantastico Mix) 4:43
7 Mistakes 5:23
8 Aerobotic 2:03
9 Broken (Wheatwacker Mix) 4:07
10 I.G.O. 4:43
11 Xtermin8 8:12

Лог создания рипа

Exact Audio Copy V1.0 beta 3 from 29. August 2011
EAC extraction logfile from 22. September 2017, 15:50
Unyx / Sequenzerkiller
Used drive : PIONEER DVD-RW DVR-111D Adapter: 0 ID: 0
Read mode : SecureUtilize accurate stream : YesDefeat audio cache : YesMake use of C2 pointers : No
Read offset correction : 48Overread into Lead-In and Lead-Out : NoFill up missing offset samples with silence : YesDelete leading and trailing silent blocks : NoNull samples used in CRC calculations : YesUsed interface : Installed external ASPI interfaceGap handling : Appended to previous track
Used output format : User Defined EncoderSelected bitrate : 128 kBit/sQuality : HighAdd ID3 tag : NoCommand line compressor : C:\Program Files (x86)\Exact Audio Copy\Flac\flac.exeAdditional command line options : -8 -V -T "ARTIST=%artist%" -T "TITLE=%title%" -T "ALBUM=%albumtitle%" -T "DATE=%year%" -T "TRACKNUMBER=%tracknr%" -T "TOTALTRACKS=%numtracks%" -T "DISCNUMBER=%cdnumber%" -T "TOTALDISCS=%totalcds%" -T "PERFORMER=%albuminterpret%" -T "COMPOSER=%composer%" -T "GENRE=%genre%" -T "ALBUMARTIST=%albumartist%" -T "ALBUM ARTIST=%albumartist%" -T "COMMENT=%comment%" %source%
TOC of the extracted CD
Track | Start | Length | Start sector | End sector --------------------------------------------------------- 1 | 0:00.00 | 4:27.51 | 0 | 20075 2 | 4:27.51 | 4:15.01 | 20076 | 39201 3 | 8:42.52 | 5:20.55 | 39202 | 63256 4 | 14:03.32 | 3:39.34 | 63257 | 79715 5 | 17:42.66 | 4:05.57 | 79716 | 98147 6 | 21:48.48 | 4:43.40 | 98148 | 119412 7 | 26:32.13 | 5:24.68 | 119413 | 143780 8 | 31:57.06 | 2:03.03 | 143781 | 153008 9 | 34:00.09 | 4:07.15 | 153009 | 171548 10 | 38:07.24 | 4:43.45 | 171549 | 192818 11 | 42:50.69 | 9:17.06 | 192819 | 234599
Track 1
Filename D:\Новая папка\01 Home Justice.wav
Pre-gap length 0:00:02.00
Peak level 93.7 % Extraction speed 4.3 X Track quality 100.0 % Test CRC ACD0FD2A Copy CRC ACD0FD2A Track not present in AccurateRip database Copy OK
Track 2
Filename D:\Новая папка\02 Six Million Waves.wav
Pre-gap length 0:00:02.00
Peak level 93.6 % Extraction speed 4.9 X Track quality 100.0 % Test CRC D5262261 Copy CRC D5262261 Track not present in AccurateRip database Copy OK
Track 3
Filename D:\Новая папка\03 Wrong Job Remix.wav
Pre-gap length 0:00:02.00
Peak level 93.7 % Extraction speed 5.5 X Track quality 100.0 % Test CRC 2F7EFF0F Copy CRC 2F7EFF0F Track not present in AccurateRip database Copy OK
Track 4
Filename D:\Новая папка\04 Funk 29.wav
Pre-gap length 0:00:02.00
Peak level 93.0 % Extraction speed 5.0 X Track quality 99.9 % Test CRC 7B9D7FE1 Copy CRC 7B9D7FE1 Track not present in AccurateRip database Copy OK
Track 5
Filename D:\Новая папка\05 Nothing New Chief.wav
Pre-gap length 0:00:02.00
Peak level 93.7 % Extraction speed 6.1 X Track quality 100.0 % Test CRC A92C716C Copy CRC A92C716C Track not present in AccurateRip database Copy OK
Track 6
Filename D:\Новая папка\06 Shelter For Love (Fantastico Mix).wav
Pre-gap length 0:00:02.00
Peak level 90.9 % Extraction speed 5.9 X Track quality 99.9 % Test CRC B5346D0F Copy CRC B5346D0F Track not present in AccurateRip database Copy OK
Track 7
Filename D:\Новая папка\07 Mistakes.wav
Pre-gap length 0:00:02.00
Peak level 80.7 % Extraction speed 7.0 X Track quality 100.0 % Test CRC 90B8C178 Copy CRC 90B8C178 Track not present in AccurateRip database Copy OK
Track 8
Filename D:\Новая папка\08 Aerobotic.wav
Pre-gap length 0:00:02.00
Peak level 93.7 % Extraction speed 6.1 X Track quality 100.0 % Test CRC 64DF7ABF Copy CRC 64DF7ABF Track not present in AccurateRip database Copy OK
Track 9
Filename D:\Новая папка\09 Broken (Wheatwacker Mix).wav
Pre-gap length 0:00:02.00
Peak level 93.6 % Extraction speed 7.1 X Track quality 100.0 % Test CRC 5AE27472 Copy CRC 5AE27472 Track not present in AccurateRip database Copy OK
Track 10
Filename D:\Новая папка\10 I.G.O..wav
Pre-gap length 0:00:02.00
Peak level 92.6 % Extraction speed 7.5 X Track quality 100.0 % Test CRC D5379549 Copy CRC D5379549 Track not present in AccurateRip database Copy OK
Track 11
Filename D:\Новая папка\11 Xtermin8.wav
Pre-gap length 0:00:02.00
Peak level 93.7 % Extraction speed 8.0 X Track quality 99.9 % Test CRC D299F11C Copy CRC D299F11C Track not present in AccurateRip database Copy OK
None of the tracks are present in the AccurateRip database
No errors occurred
End of status report
==== Log checksum 2D29D24ED8C99C895498D15D76FA999882EC8772C908D132A4C0422EFD844120 ====

Содержание индексной карты (.CUE)

REM GENRE BreakbeatREM DATE 2000REM DISCID 930C380BREM COMMENT "ExactAudioCopy v1.0b3"PERFORMER " Unyx"TITLE "Sequenzerkiller"FILE "01 Home Justice.wav" WAVE TRACK 01 AUDIO TITLE "Home Justice" PERFORMER " Unyx" FLAGS PRE INDEX 01 00:00:00 TRACK 02 AUDIO TITLE "Six Million Waves" PERFORMER " Unyx" FLAGS PRE INDEX 00 04:25:51FILE "02 Six Million Waves.wav" WAVE INDEX 01 00:00:00 TRACK 03 AUDIO TITLE "Wrong Job Remix" PERFORMER " Unyx" FLAGS PRE INDEX 00 04:13:01FILE "03 Wrong Job Remix.wav" WAVE INDEX 01 00:00:00 TRACK 04 AUDIO TITLE "Funk 29" PERFORMER " Unyx" FLAGS PRE INDEX 00 05:18:55FILE "04 Funk 29.wav" WAVE INDEX 01 00:00:00 TRACK 05 AUDIO TITLE "Nothing New Chief" PERFORMER " Unyx" FLAGS PRE INDEX 00 03:37:34FILE "05 Nothing New Chief.wav" WAVE INDEX 01 00:00:00 TRACK 06 AUDIO TITLE "Shelter For Love (Fantastico Mix)" PERFORMER " Unyx" FLAGS PRE INDEX 00 04:03:57FILE "06 Shelter For Love (Fantastico Mix).wav" WAVE INDEX 01 00:00:00 TRACK 07 AUDIO TITLE "Mistakes" PERFORMER " Unyx" FLAGS PRE INDEX 00 04:41:40FILE "07 Mistakes.wav" WAVE INDEX 01 00:00:00 TRACK 08 AUDIO TITLE "Aerobotic" PERFORMER " Unyx" FLAGS PRE INDEX 00 05:22:68FILE "08 Aerobotic.wav" WAVE INDEX 01 00:00:00 TRACK 09 AUDIO TITLE "Broken (Wheatwacker Mix)" PERFORMER " Unyx" FLAGS PRE INDEX 00 02:01:03FILE "09 Broken (Wheatwacker Mix).wav" WAVE INDEX 01 00:00:00 TRACK 10 AUDIO TITLE "I.G.O." PERFORMER " Unyx" FLAGS PRE INDEX 00 04:05:15FILE "10 I.G.O..wav" WAVE INDEX 01 00:00:00 TRACK 11 AUDIO TITLE "Xtermin8" PERFORMER " Unyx" FLAGS PRE INDEX 00 04:41:45FILE "11 Xtermin8.wav" WAVE INDEX 01 00:00:00


[geo-torrent.biz]_t_5463417.torrent
Torrent: Registered ·  [ 2017-10-11 22:48 ] ·  ad027dea9d581914a685ec4100c99c35898b9511

15 KB

Status: checked
Completed: 0 times
Size: 347 MB
Rating: 
(Votes: 0)
Say thanks: 0  Thanks
Похожие темы
[Profile]    [PM]
Display posts from previous:    
Reply to topic

The time now is: Today 12:19

All times are GMT + 7 Hours



You cannot post new topics in this forum
You cannot reply to topics in this forum
You cannot edit your posts in this forum
You cannot delete your posts in this forum
You cannot vote in polls in this forum
You cannot attach files in this forum
You can download files in this forum