Дом на продажу / The Open House (Мэтт Энджел / Matt Angel, Сюзанна Кут / Suzanne Coote) [2018, США, Ужасы, триллер, WEBRip] MVO (Jaskier)

Reply to topic
DL-List and Torrent activity [Update пиров]
Size:  1.37 GB   |    Registered:  1 year 6 months   |    Completed:  0 times
Seeders:  15  [  0 KB/s  ]   Leechers:  3  [  0 KB/s  ]   Show peers in full details
 
   
 
 
 
Author Message

Генри

Post 17-Mar-2018 02:31

[Quote]

Дом на продажу / The Open House
Год выхода: 2018
Выпущено: США / Netflix
Жанр: ужасы, триллер
Продолжительность: 01:34:58-Перевод: Профессиональный (многоголосый закадровый) | Jaskier
Субтитры: нет
Оригинальная аудиодорожка: нет-Режиссер: Мэтт Энджел / Matt Angel, Сюзанна Кут / Suzanne Coote-В ролях: Дилан Миннетт, Пирси Далтон, Шариф Аткинс, Патрисия Бетун, Мэтт Энджел, Сьюзен Кут, Аарон Абрамс-О фильме: Подросток Логан переезжает вместе с матерью Наоми в небольшой городок в живописном местечке вдали от шумных мегаполисов. Все идет как задумано, семья привыкает к изменениям и заводит друзей, но внезапно герои начинают замечать происходящие странности.-Качество: WEBRip
Формат файла: AVI
Видео: 720x304 (2.35:1), 23.976 fps, XviD build 73 ~1669 kbps avg, 0.318 bit/pixel
Аудио 1: AC3 | 48 KHz | 5.1 (Front: L С R Side: L R) + LFE | ~384 kbps [RUS]-[img]https://rating.kinopoisk.ru/1100911.gif[/img] -

MediaInfo

Общее
Полное имя                               : D:\Яскъер\The.Open.House.2018.WEBRip.Jaskier.avi
Формат файла                                   : AVI
Формат файла/Информация                        : Audio Video Interleave
Размер файла                             : 1,37 Гбайт
Продолжительность                        : 1 ч. 34 м.
Общий поток                              : 2062 Кбит/сек
Программа кодирования                    : VirtualDubMod 1.5.10.3 | www.virtualdub-fr.org || (build 2550/release)
Библиотека кодирования                   : VirtualDubMod build 2550/release
Видео
Идентификатор                            : 0
Формат файла                                   : MPEG-4 Visual
Профиль формата                          : Advanced Simple@L5
Настройки формата                        : BVOP1 / Custom Matrix
Параметр BVOP формата                    : 1
Параметр QPel формата                    : Нет
Параметр GMC формата                     : Без точки перехода
Параметр матрицы формата                 : Выборочная
Идентификатор кодека                     : XVID
Идентификатор кодека/Подсказка           : XviD
Продолжительность                        : 1 ч. 34 м.
Битрейт                                  : 1669 Кбит/сек
Ширина                                   : 720 пикселей
Высота                                   : 304 пикселя
Соотношение сторон                       : 2,35:1
Частота кадров                           : 23,976 (24000/1001) кадра/сек
Цветовое пространство                    : YUV
Субдискретизация насыщенности            : 4:2:0
Битовая глубина                          : 8 бит
Тип развёртки                            : Прогрессивная
Метод сжатия                             : С потерями
Бит/(Пиксели*Кадры)                      : 0.318
Размер потока                            : 1,11 Гбайт (81%)
Библиотека кодирования                   : XviD 73
Аудио
Идентификатор                            : 1
Формат файла                                   : AC-3
Формат файла/Информация                        : Audio Coding 3
Идентификатор кодека                     : 2000
Продолжительность                        : 1 ч. 34 м.
Вид битрейта                             : Постоянный
Битрейт                                  : 384 Кбит/сек
Каналы                                   : 6 каналов
Расположение каналов                     : Front: L C R, Side: L R, LFE
Частота                                  : 48,0 КГц
Частота кадров                           : 31,250 кадров/сек (1536 SPF)
Битовая глубина                          : 16 бит
Метод сжатия                             : С потерями
Размер потока                            : 261 Мбайт (19%)
Выравнивание                             : Разделение по промежуткам
Продолжительность промежутка             : 42  мс. (1,00 видеокадр)
Время предзагрузки промежутка            : 500  мс.
ServiceKind/String                       : Complete Main

Скриншоты



[geo-torrent.biz]_t_5534290.torrent
Torrent: Registered ·  [ 2018-03-17 02:31 ] ·  e9b4d3b4aa5d2f71e3696f08c6f9cdabb2452637

14 KB

Status: checked
Completed: 0 times
Size: 1.37 GB
Rating: 
(Votes: 0)
Say thanks: 0  Thanks
Похожие темы
[Profile]    [PM]
Display posts from previous:    
Reply to topic

The time now is: Today 17:18

All times are GMT + 7 Hours



You cannot post new topics in this forum
You cannot reply to topics in this forum
You cannot edit your posts in this forum
You cannot delete your posts in this forum
You cannot vote in polls in this forum
You cannot attach files in this forum
You can download files in this forum