Машины помощники / Серии: 1-18 [2016-2018, детский, развивающий, WEBRip 1080, rus] (мультфильм)

Reply to topic
DL-List and Torrent activity [Update пиров]
Size:  841 MB   |    Registered:  1 year 4 months   |    Completed:  1 time

Seeder not seen: 20 hours

 
   
 
 
 
Author Message

Генри

Post 24-Jul-2018 22:38

[Quote]

Машины помощники-[img=right]https://i105.fastpic.ru/big/2018/0721/98/6549c7713e...79c998.png[/img]
Страна: Россия
Студия: ТВ Деткам, Первый проект (ProjectFirst, LLC)
Жанр: детский, развивающий
Продолжительность: ~00.04.00
Год выхода: 2016-2018
Режиссер: Мария Поддубная
Возраст: 0+
Сюжет фильма:
Маленькие мальчики всего мира любят играть в машинки, но что они знают о «взрослых» прототипах своих любимцев? Познавательный мультсериал «Машины-помощники» знакомит малышей с разными видами четырехколесных друзей современного человека. Стоит кому-нибудь серьезно заболеть или пораниться, как на работу выходит «Скорая помощь». Если она спешит на вызов, то на ее крыше загорается проблесковый маячок. Такое же устройство мигает на пожарной машине – воительнице с неуправляемым огнем. Ответственную работу выполняет и полицейский автомобиль, патрулирующий город. На выручку своим собратьям на колесах, которые сломались и не могут продолжать поездку, приходит эвакуатор. За чистоту дорог стоит поблагодарить уборочную машину, а за новые постройки – экскаваторы, самосвалы, автовозы, бетономешалку. Маленькие зрители убедятся, что машины для взрослых – не игрушки. Каждое транспортное средство выполняет ответственную работу. Впрочем, в свободное время они не против развлечься – поучаствовать в гонках или даже совершить мертвую петлю.-Качество видео: WEBRip 1080p
Формат файла: mp4
Видео: кодек: AVC, размер кадра: 1920x1080 (16:9), битрейт: ~1800 кб/с, частота кадров: ~30 кадра/сек
Аудио: язык: русский (оригинал), частота дискретизации: 44100 Гц, аудиокодек: AAC, 2 ch, битрейт аудио: 126 кб/с-Список серий
  • Пожарная, скорая, полицейская, эвакуатор
  • Скорая и эвакуатор
  • Гоночная трасса
  • Грузовик, бетономешалка, пожарная, автовоз
  • Мертвая петля
  • Ремонт трассы
  • Автобус, легковушка, самосвал, экскаватор
  • На заправке
  • На ферме
  • Готовимся к Новому году
  • Сломанный мост
  • Пожар и новый дом
  • Снегоуборочная техника
  • Новый гараж
  • Строим трассу
  • Гонки
  • Самосвал застрял на трассе
  • Пикап и лесовоз

    MediaInfo

    ОбщееПолное имя : \Грузовичок Лёва и другие\Машины помощники\002. Машины помощники - Скорая и эвакуатор.mp4Формат файла : MPEG-4Профиль формата : Base MediaИдентификатор кодека : isom (isom/iso2/avc1/mp41)Размер файла : 52,3 МбайтПродолжительность : 3 м. 40 с.Общий поток : 1992 Кбит/секПрограмма кодирования : Lavf56.40.101
    ВидеоИдентификатор : 1Формат файла : AVCФормат файла/Информация : Advanced Video CodecПрофиль формата : High@L4Настройки формата : CABAC / 3 Ref FramesПараметр CABAC формата : ДаПараметр RefFrames формата : 3 кадраИдентификатор кодека : avc1Идентификатор кодека/Информация : Advanced Video CodingПродолжительность : 3 м. 40 с.Duration_FirstFrame : -33 мс.Битрейт : 1859 Кбит/секШирина : 1920 пикселейВысота : 1080 пикселейСоотношение сторон : 16:9Режим частоты кадров : ПеременныйЧастота кадров : 30,000 кадров/секМинимальная частота кадров : 30,000 кадров/секМаксимальная частота кадров : 30,020 кадров/секЦветовое пространство : YUVСубдискретизация насыщенности : 4:2:0Битовая глубина : 8 битТип развёртки : ПрогрессивнаяБит/(Пиксели*Кадры) : 0.030Размер потока : 48,8 Мбайт (93%)Цветовой диапазон : LimitedОсновные цвета : BT.709Характеристики трансфера : BT.709Коэффициенты матрицы : BT.709
    АудиоИдентификатор : 2Формат файла : AACФормат файла/Информация : Advanced Audio CodecПрофиль формата : LCИдентификатор кодека : mp4a-40-2Продолжительность : 3 м. 40 с.Вид битрейта : ПостоянныйБитрейт : 126 Кбит/секКаналы : 2 каналаРасположение каналов : Front: L RЧастота : 44,1 КГцЧастота кадров : 43,066 кадра/сек (1024 SPF)Метод сжатия : С потерямиРазмер потока : 3,30 Мбайт (6%)Default : ДаAlternateGroup/String : 1

    Источник

    ТВ Деткам (youtube)
    Обрезал рекламу.
    Нумерация серий согласно появлению на канале в youtube.

    Мои рекомендации

    [url=tracker.php?nm=%D0%93%D1%80%D1%83%D0%B7%D0%BE%D0%B2%D0%B8%D1%87%D0%BE%D0%BA%20%D0%9B%D1%91%D0%B2%D0%B0]Грузовичок Лёва [детский, развивающий][/url]
    [url=tracker.php?nm=%D0%AD%D0%BA%D1%81%D0%BA%D0%B0%D0%B2%D0%B0%D1%82%D0%BE%D1%80%20%D0%9C%D0%B0%D1%81%D1%8F]Экскаватор Мася [детский, развивающий][/url]
    [url=tracker.php?nm=%D0%9C%D0%B0%D1%88%D0%B8%D0%BD%D0%BA%D0%B8%20%D0%A1%D0%B5%D1%80%D0%B8%D0%B0%D0%BB%20%D0%B4%D0%BB%D1%8F%20%D0%BC%D0%B0%D0%BB%D1%8C%D1%87%D0%B8%D0%BA%D0%BE%D0%B2]Машинки (Сериал для мальчиков) [детский, обучающий][/url]
    [url=tracker.php?nm=%D0%A7%D0%B5%D1%82%D1%8B%D1%80%D0%B5%20%D0%BC%D0%B0%D1%88%D0%B8%D0%BD%D0%BA%D0%B8]Четыре машинки [детский, развивающий][/url]
    [url=tracker.php?nm=%D0%92%D0%B5%D1%81%D0%B5%D0%BB%D1%8B%D0%B9%20%D0%BA%D0%BE%D0%BD%D1%81%D1%82%D1%80%D1%83%D0%BA%D1%82%D0%BE%D1%80]Веселый конструктор [детский, развивающий][/url]
    [url=tracker.php?nm=%20%D0%9C%D0%B0%D0%BB%D1%8B%D1%88%D0%B0%D1%80%D0%B8%D0%BA%D0%B8]Малышарики [обучающий, детский][/url]
    [url=tracker.php?nm=%D0%9A%D0%BE%D1%82%D0%B8%D0%BA%D0%B8%2C%20%D0%B2%D0%BF%D0%B5%D1%80%D0%B5%D0%B4]Котики, вперед! [обучающий, детский][/url]
    [url=tracker.php?nm=%D0%A4%D0%B8%D0%BA%D1%81%D0%B8%D0%BA%D0%B8]Фиксики [семейный, познавательный][/url]
    [url=tracker.php?nm=%09%D0%91%D1%83%D1%80%D1%91%D0%BD%D0%BA%D0%B0%20%D0%94%D0%B0%D1%88%D0%B0]Бурёнка Даша [детский, караоке][/url]
    [url=tracker.php?nm=%D0%9B%D0%B5%D1%82%D0%B0%D1%8E%D1%89%D0%B8%D0%B5%20%D0%97%D0%B2%D0%B5%D1%80%D0%B8]Летающие Звери [детский][/url]
    [url=tracker.php?nm=%D0%A1%D0%BC%D0%B5%D1%88%D0%B0%D1%80%D0%B8%D0%BA%D0%B8]Смешарики, Пин-код [семейный, познавательный][/url]
    [url=tracker.php?nm=%D0%9C%D0%B8-%D0%BC%D0%B8-%D0%BC%D0%B8%D1%88%D0%BA%D0%B8]Ми-ми-мишки [детский][/url]

    Внимание! Раздача ведётся путём добавления новых выпусков.

    Раздача ведётся путём добавления новых выпусков. При каждом добавлении создётся новый торрент. Чтобы начать докачку новой серии, пользователям необходимо сделать следующее:
    (1) остановить скачивание,
    (2) удалить старый торрент у себя из клиента (старые серии удалять не надо),
    (3) скачать новый торрент и запустить его у себя в клиенте вместо старого, при этом указать клиенту путь в старую папку куда и должно происходить скачивание новых серий.
    Ваш клиент при этом должен произвести хеширование (проверку) старой папки (если не производит сам - помогите ему сделать это), и будет докачивать только те серии которых у вас ещё нет. Старые серии при этом не удаляются, а продолжают раздаваться!
    Eсли вы уже удалили старые серии, то предотвратить повторную закачку старых серий можно, отжав галочку в соответсвующих местах при запуске нового торрента.


    [geo-torrent.biz]_t_5590105.torrent
    Torrent: Registered ·  [ 2018-07-24 22:38 ] ·  ce2236e61bc92a904fea5c77188137468da64764

    19 KB

    Status: checked
    Completed: 1 times
    Size: 841 MB
    Rating: 
    (Votes: 0)
    Say thanks: 0  Thanks
    Похожие темы
  • [Profile]    [PM]
    Display posts from previous:    
    Reply to topic

    The time now is: Today 15:52

    All times are GMT + 7 Hours



    You cannot post new topics in this forum
    You cannot reply to topics in this forum
    You cannot edit your posts in this forum
    You cannot delete your posts in this forum
    You cannot vote in polls in this forum
    You cannot attach files in this forum
    You can download files in this forum