(Gothic Rock) [WEB] Florian Grey - Gone - 2015, FLAC (tracks), lossless

Reply to topic
DL-List and Torrent activity [Update пиров]
Size:  298 MB   |    Registered:  11 months 22 days   |    Completed:  0 times

Seeder not seen: Never

 
   
 
 
 
Author Message

Mak

Post 23-Oct-2018 12:41

[Quote]



Florian Grey

Gone





• Жанр: Gothic Rock
• Носитель: WEB
• Год издания: 2015
• Издатель: Echozone
• Страна: Germany
• Аудиокодек: FLAC (*.flac)
• Тип рипа: tracks
• Продолжительность: 00:46:41
• Источник (спасибо): NT
• WEB bandcamp
• Наличие сканов: front

01 - My Fear (00:04:24)
02 - Laudanum (00:03:30)
03 - Strange Ways (00:04:51)
04 - Demons (00:01:46)
05 - A Black Symphony (00:04:29)
06 - In Control (00:04:54)
07 - The Way I Die (00:04:42)
08 - Once (00:03:37)
09 - Suffering (00:00:49)
10 - Nocturne in Es (00:04:00)
11 - The End (00:04:45)
12 - Gone (00:04:46)

-
-

• Замер динамического диапазона •

foobar2000 1.2.5 / Замер динамического диапазона (DR) 1.1.1Дата отчёта: 2018-10-14 21:35:21
--------------------------------------------------------------------------------Анализ: Florian Grey / Gone--------------------------------------------------------------------------------
DR Пики RMS Продолжительность трека--------------------------------------------------------------------------------DR7 -0.05 дБ -7.87 дБ 4:25 01-My FearDR7 -0.05 дБ -8.56 дБ 3:31 02-LaudanumDR6 -0.05 дБ -8.21 дБ 4:52 03-Strange WaysDR12 -0.95 дБ -16.45 дБ 1:47 04-DemonsDR7 -0.05 дБ -8.87 дБ 4:30 05-A Black SymphonyDR7 -0.05 дБ -9.51 дБ 4:54 06-In ControlDR12 -0.05 дБ -14.90 дБ 4:43 07-The Way I DieDR9 -0.13 дБ -13.37 дБ 3:37 08-OnceDR14 -1.29 дБ -18.97 дБ 0:50 09-SufferingDR8 -0.05 дБ -10.57 дБ 4:01 10-Nocturne in EsDR8 -0.05 дБ -11.41 дБ 4:45 11-The EndDR10 -0.52 дБ -12.87 дБ 4:47 12-Gone--------------------------------------------------------------------------------
Количество треков: 12Реальные значения DR: DR9
Частота: 44100 ГцКаналов: 2Разрядность: 16Битрейт: 795 кбит/сКодек: FLAC================================================================================
-

• Лог проверки качества •

-----------------------
DON'T MODIFY THIS FILE
-----------------------
PERFORMER: auCDtect Task Manager, ver. 1.6.0 RC1 build 1.6.0.1Copyright (c) 2008-2010 y-soft. All rights reservedhttp://y-soft.org
ANALYZER: auCDtect: CD records authenticity detector, version 0.8.2Copyright (c) 2004 Oleg Berngardt. All rights reserved.Copyright (c) 2004 Alexander Djourik. All rights reserved.
FILE: 12 - Gone.flac Size: 29173782 Hash: 5843ED4480934B5CBF28B6034FE15724 Accuracy: -m0 Conclusion: CDDA 99% Signature: 529E7014241B9FDD9DF3D878F507DF252266AEA7FILE: 11 - The End.flac Size: 32559522 Hash: 5A578A43357F95FDA8491E7E7D2FC2AD Accuracy: -m0 Conclusion: CDDA 100% Signature: 720A23EC860F2E35037CDE122BD64D71A9CA7389FILE: 10 - Nocturne in Es.flac Size: 26215358 Hash: 486D870BC3475542D925B8EF1CC53D60 Accuracy: -m0 Conclusion: CDDA 100% Signature: 0AC3ECD68A539D26AD3FC09273F1AE898CF74991FILE: 09 - Suffering.flac Size: 5278744 Hash: 38374374C998E5A91E62901789FC4F9F Accuracy: -m0 Conclusion: CDDA 100% Signature: 8046DDD796CF605C0597AAFBAC1B2C0467ED7A69FILE: 08 - Once.flac Size: 22521577 Hash: 179D643CECD2E632CC4CA21140F4B8F6 Accuracy: -m0 Conclusion: CDDA 100% Signature: 2F5947D4B2FFF4C349A3B4C3565BBB6ADD264565FILE: 07 - The Way I Die.flac Size: 26858569 Hash: 5DB7C8888F48A4FF295864C476953628 Accuracy: -m0 Conclusion: CDDA 100% Signature: 4F5CC2A752D60CC113BC791E3838B43378CD1E60FILE: 06 - In Control.flac Size: 37072971 Hash: B4B4C26E489ECF8AF2F4EC01CEB34373 Accuracy: -m0 Conclusion: CDDA 100% Signature: 2522F3C9FE81E919884294225E14E6B5BEA2830DFILE: 05 - A Black Symphony.flac Size: 33991109 Hash: 89F419EC34F7644F795CE7891477F94D Accuracy: -m0 Conclusion: CDDA 100% Signature: EDF120D5192B26DD66A8CFC957B0F62FD1FA9D14FILE: 04 - Demons.flac Size: 10040342 Hash: 4FA2662E28958EEC0AA8D135CD255A7C Accuracy: -m0 Conclusion: CDDA 99% Signature: FB6591D85067F6BDD56CF6C42F11EB05CB100A52FILE: 03 - Strange Ways.flac Size: 37320147 Hash: DD5B313B9FCDE4C1F544EC305D24890E Accuracy: -m0 Conclusion: CDDA 100% Signature: C32D186914C158BAA2D7EA09C9FB04BD28BE0F53FILE: 02 - Laudanum.flac Size: 23927255 Hash: 7826334F85EEE7A3681C3B9338B89CCD Accuracy: -m0 Conclusion: CDDA 100% Signature: 217256141F860D047860B2298A67643BEADA2193FILE: 01 - My Fear.flac Size: 32791441 Hash: FFA380F4BFD3A8A47CE88B1429404AA9 Accuracy: -m0 Conclusion: CDDA 100% Signature: F9CB15DF75403235D0591E5DBE0CD032680C351C
-[img]https://i79.fastpic.ru/big/2018/1015/19/0ac2554930124ee5963a8b7e27268119.jpg[/img]


[geo-torrent.biz]_t_5628902.torrent
Torrent: Registered ·  [ 2018-10-23 12:41 ] ·  10169c9459a72a037bf80d27b1eb911bbbd92541

13 KB

Status: checked
Completed: 0 times
Size: 298 MB
Rating: 
(Votes: 0)
Say thanks: 0  Thanks
Похожие темы
[Profile]    [PM]
Display posts from previous:    
Reply to topic

The time now is: Today 17:16

All times are GMT + 7 Hours



You cannot post new topics in this forum
You cannot reply to topics in this forum
You cannot edit your posts in this forum
You cannot delete your posts in this forum
You cannot vote in polls in this forum
You cannot attach files in this forum
You can download files in this forum