Алый Хаяте / Akai Hayate / Red Hayate [OVA] [4 из 4] [Без хардсаба] [JAP+SUB] [1991, приключения, боевые искусства, LDRip]

Reply to topic
DL-List and Torrent activity [Update пиров]
Size:  1.08 GB   |    Registered:  1 year 2 months   |    Completed:  0 times

Seeder not seen: Never

 
   
 
 
 
Author Message

Mak

Post 23-Jan-2019 21:01

[Quote]

Алый Хаяте / Akai Hayate / Red Hayate / 紅いハヤテ
Страна: Япония
Год выхода: 1991
Жанр: приключения, боевые искусства
Тип: OVA
Продолжительность: 4 эп. по 27 мин.
Режиссер: Цуруяма Осаму
Студия: Minamimachi Bugyosho
Описание: На протяжении более тысячи лет Японией тайно правил клан ниндзя. И их власть была нерушимой до тех пор, пока против них не восстал Хаятэ Канума и не убил их лидера, собственного отца. За предательство он должен был поплатиться собственной жизнью, но в последний момент Хаятэ успел перенести свою душу в тело сестры Шиори. Теперь она живет под псевдонимом Юкико, а убийцы до сих пор ищут отцеубийцу и отступника Хаятэ. Однако каждый раз, когда Шиори призывает брата, она приносит в жертву часть себя. В конце концов, две души не могут занимать одно тело надолго.
© hellkriteg
Качество: LDRip
Тип релиза: Без хардсаба
Формат файла: MKV
/Автор рипа: Orphan-M74-ReDone
Видео: AVC, 640x480, 1 073 kb/s, 23.976 fps, 10 bit
Аудио: jpn(int), AC-3, 384 kb/s, 48.0 kHz, 2 ch
Субтитры 1: eng(int), ASS, перевод: Orphan-M74-ReDone
Субтитры 2: rus(ext), ASS, перевод: Moonwarrior (aka hokuto_san)

Подробные тех. данные

GeneralUnique ID : 219880922904244992425626022948765377582 (0xA56B867E21126CFF951BCFD8DF6B242E)Complete name : V:\1\ZR\[Orphan-M74-ReDone] Akai Hayate (LD)\[Orphan-M74-ReDone] Akai Hayate - 01 (LD) [172D96B2].mkvFormat : MatroskaFormat version : Version 4File size : 291 MiBDuration : 27 min 21 sOverall bit rate : 1 486 kb/sMovie name : [Orphan-M74-ReDone] Akai Hayate - 01Encoded date : UTC 2017-09-29 20:43:49Writing application : mkvmerge v7.8.0 ('River Man') 32bit built on Mar 27 2015 16:18:02Writing library : libebml v1.3.1 + libmatroska v1.4.2Attachments : 123Marker.ttf / ARTIFICESSK.TTF / Calligrapher Regular.ttf / FOT Rodin Pro EB.ttf / FOT Rodin Pro UB.ttf / quaysansmditctt.ttf / quaysansmditctt-italic.ttf / STYLLO.TTF
VideoID : 1Format : AVCFormat/Info : Advanced Video CodecFormat profile : High 10@L4.1Format settings : CABAC / 16 Ref FramesFormat settings, CABAC : YesFormat settings, RefFrames : 16 framesCodec ID : V_MPEG4/ISO/AVCDuration : 27 min 21 sBit rate : 1 073 kb/sWidth : 640 pixelsHeight : 480 pixelsDisplay aspect ratio : 4:3Frame rate mode : ConstantFrame rate : 23.976 (24000/1001) FPSColor space : YUVChroma subsampling : 4:2:0Bit depth : 10 bitsScan type : ProgressiveBits/(Pixel*Frame) : 0.146Stream size : 210 MiB (72%)Title : VideoWriting library : x264 core 148 r2638 7599210Encoding settings : cabac=1 / ref=16 / deblock=1:0:0 / analyse=0x3:0x133 / me=umh / subme=10 / psy=1 / psy_rd=0.80:0.00 / mixed_ref=1 / me_range=24 / chroma_me=1 / trellis=2 / 8x8dct=1 / cqm=0 / deadzone=21,11 / fast_pskip=1 / chroma_qp_offset=-2 / threads=12 / lookahead_threads=2 / sliced_threads=0 / nr=0 / decimate=1 / interlaced=0 / bluray_compat=0 / constrained_intra=0 / bframes=8 / b_pyramid=2 / b_adapt=2 / b_bias=0 / direct=3 / weightb=1 / open_gop=0 / weightp=2 / keyint=240 / keyint_min=23 / scenecut=40 / intra_refresh=0 / rc_lookahead=60 / rc=crf / mbtree=1 / crf=17.0 / qcomp=0.60 / qpmin=0 / qpmax=81 / qpstep=4 / vbv_maxrate=62500 / vbv_bufsize=78125 / crf_max=0.0 / nal_hrd=none / filler=0 / ip_ratio=1.40 / aq=1:1.00Default : YesForced : No
AudioID : 2Format : AC-3Format/Info : Audio Coding 3Commercial name : Dolby DigitalCodec ID : A_AC3Duration : 27 min 21 sBit rate mode : ConstantBit rate : 384 kb/sChannel(s) : 2 channelsChannel layout : L RSampling rate : 48.0 kHzFrame rate : 31.250 FPS (1536 SPF)Bit depth : 16 bitsCompression mode : LossyStream size : 75.1 MiB (26%)Title : Japanese, 2.0 AC3Language : JapaneseService kind : Complete MainDefault : YesForced : No
TextID : 3Format : ASSCodec ID : S_TEXT/ASSCodec ID/Info : Advanced Sub Station AlphaCompression mode : LosslessTitle : English subtitlesLanguage : EnglishDefault : YesForced : No
Menu00:00:00.000 : Prologue00:04:06.800 : Episode 100:24:35.280 : Preview00:25:17.280 : End Credits

Список эпизодов

1. Появление Хаяте
2. Тенгу Солнечного света
3. Крах Нансо
4. Финальная битва

Скриншоты



[geo-torrent.biz]_t_5672112.torrent
Torrent: Registered ·  [ 2019-01-23 20:56 ] ·  2b16aa4cc9f110aa32558c36f14da4fae8f7517f

12 KB

Status: checked
Completed: 0 times
Size: 1.08 GB
Rating: 
(Votes: 0)
Say thanks: 0  Thanks
Похожие темы
[Profile]    [PM]
Display posts from previous:    
Reply to topic

The time now is: Today 01:34

All times are GMT + 7 Hours



You cannot post new topics in this forum
You cannot reply to topics in this forum
You cannot edit your posts in this forum
You cannot delete your posts in this forum
You cannot vote in polls in this forum
You cannot attach files in this forum
You can download files in this forum