The Ex: Прекрасное остервенение / The Ex in Beautiful Frenzy (Christina Hallström / Кристина Халльстрём, Mandra U. Wabäck / Мандра Вабек) [2001, anarcho-punk, free jazz, documentary, DVDRip] + Sub Rus

Reply to topic
DL-List and Torrent activity [Update пиров]
Size:  859 MB   |    Registered:  7 months 26 days   |    Completed:  0 times

Seeder not seen: Never

 
   
 
 
 
Author Message

Пушистый

Post 16-Feb-2019 11:58

[Quote]

The Ex: Прекрасное остервенение / The Ex in Beautiful Frenzy
Страна: Нидерланды, Швеция
Жанр: anarcho-punk, free jazz, documentary
Продолжительность: 00:54:09
Год выхода: 2001
Перевод: субтитры
Субтитры: русский
Оригинальная аудиодорожка: нидерландский, английский
Режиссер: Christina Hallström / Кристина Халльстрём, Mandra U. Wabäck / Мандра Вабек
Описание: Портрет голландской группы The Ex к 2001 году. На протяжении десятилетий их музыка постепенно развивается: от прямолинейного панка к чрезвычайно замысловатой экспериментальной импровизационной музыке, вдохновлённой панком, пост-панком и ноу-вейвом. Музыка, взаимное согласие и взаимодействие с аудиторией отражают отношение к жизни, основанное на упорстве и любопытстве, и уж конечно не на соответствии интересам широкой аудитории. The Ex сами организовывают собственные концерты, имеют свой собственный лейбл и играют с пылом и рвением и в зале с тремя тысячами людей, и в маленьком сквоте. В таком неамериканском стиле группе по силам выживать в течение уже многих лет в музыкальной индустрии, заинтересованной в основном в показателях продаж.
Доп. информация: Рип этой чудесной раздачи http://Torrentc/forum/viewtopic.php?t=1847480, теперь с субтитрами, переведены даже песни
Качество: DVDRip
Формат файла: MKV
Видео кодек: H.264
Аудио кодек: AC3
Видео: H.264, 712x478, 2054 kbps, 30 fps
Аудио: AC-3, 160 kbps, 48000 Hz, 2 ch

MediaInfo

[pre]General
Unique ID : 43220682057322513901780491722163387837 (0x20840025F3BFB07ED2C733AFF5427DBD)
Complete name : /home/pomm/Загрузки/2004--the--ex--beautiful--frenzy.mkv
Format : Matroska
Format version : Version 4 / Version 2
File size : 859 MiB
Duration : 54mn 9s
Overall bit rate : 2 217 Kbps
Encoded date : UTC 2019-02-08 01:01:21
Writing application : mkvmerge v8.8.0 ('Wind at my back') 64bit
Writing library : libebml v1.3.3 + libmatroska v1.4.4
Video
ID : 2
Format : AVC
Format/Info : Advanced Video Codec
Format profile : High@L4.1
Format settings, CABAC : Yes
Format settings, ReFrames : 4 frames
Codec ID : V_MPEG4/ISO/AVC
Duration : 54mn 9s
Bit rate : 2 054 Kbps
Width : 712 pixels
Height : 478 pixels
Display aspect ratio : 16:9
Original display aspect ratio : 16:9
Frame rate mode : Constant
Frame rate : 29.970 (30000/1001) fps
Color space : YUV
Chroma subsampling : 4:2:0
Bit depth : 8 bits
Scan type : Progressive
Bits/(Pixel*Frame) : 0.201
Stream size : 796 MiB (93%)
Writing library : x264 core 142 r2389 956c8d8
Encoding settings : cabac=1 / ref=3 / deblock=1:0:0 / analyse=0x3:0x113 / me=hex / subme=7 / psy=1 / psy_rd=1,00:0,00 / mixed_ref=1 / me_range=16 / chroma_me=1 / trellis=1 / 8x8dct=1 / cqm=0 / deadzone=21,11 / fast_pskip=1 / chroma_qp_offset=-2 / threads=3 / lookahead_threads=1 / sliced_threads=0 / nr=0 / decimate=1 / interlaced=0 / bluray_compat=0 / constrained_intra=0 / bframes=3 / b_pyramid=2 / b_adapt=1 / b_bias=0 / direct=1 / weightb=1 / open_gop=0 / weightp=2 / keyint=300 / keyint_min=30 / scenecut=40 / intra_refresh=0 / rc_lookahead=40 / rc=crf / mbtree=1 / crf=20,0 / qcomp=0,60 / qpmin=0 / qpmax=69 / qpstep=4 / vbv_maxrate=62500 / vbv_bufsize=78125 / crf_max=0,0 / nal_hrd=none / filler=0 / ip_ratio=1,40 / aq=1:1,00
Language : English
Default : Yes
Forced : No
Color range : Limited
Color primaries : BT.601 NTSC
Transfer characteristics : BT.709
Matrix coefficients : BT.601
Audio
ID : 3
Format : AC-3
Format/Info : Audio Coding 3
Mode extension : CM (complete main)
Format settings, Endianness : Big
Codec ID : A_AC3
Duration : 54mn 9s
Bit rate mode : Constant
Bit rate : 160 Kbps
Channel(s) : 2 channels
Channel positions : Front: L R
Sampling rate : 48.0 KHz
Frame rate : 31.250 fps (1536 spf)
Compression mode : Lossy
Stream size : 62.0 MiB (7%)
Language : English
Default : Yes
Forced : No
Text #1
ID : 1
Format : UTF-8
Codec ID : S_TEXT/UTF8
Codec ID/Info : UTF-8 Plain Text
Duration : 53mn 5s
Bit rate : 76 bps
Count of elements : 319
Stream size : 29.9 KiB (0%)
Language : Russian
Default : Yes
Forced : No
Text #2
ID : 4
Format : VobSub
Muxing mode : zlib
Codec ID : S_VOBSUB
Codec ID/Info : Picture based subtitle format used on DVDs
Duration : 50mn 11s
Bit rate : 628 bps
Count of elements : 159
Stream size : 231 KiB (0%)
Language : English
Default : No
Forced : No
Menu
00:00:00.000 : en:Chapter 1

Скриншоты



[geo-torrent.biz]_t_5203369.torrent
Torrent: Registered ·  [ 2019-02-16 11:57 ] ·  c4a86424cd2f33ed21f2396eb2cf8d097a84e8ed

34 KB

Status: checked
Completed: 0 times
Size: 859 MB
Rating: 
(Votes: 0)
Say thanks: 0  Thanks
Похожие темы
[Profile]    [PM]
Display posts from previous:    
Reply to topic

The time now is: Today 17:49

All times are GMT + 7 Hours



You cannot post new topics in this forum
You cannot reply to topics in this forum
You cannot edit your posts in this forum
You cannot delete your posts in this forum
You cannot vote in polls in this forum
You cannot attach files in this forum
You can download files in this forum