(Dancehall, Ragga) [CD] Nitty Gritty - General Penitentiary - 2011 (1987), FLAC (tracks+.cue), lossless

Reply to topic
DL-List and Torrent activity [Update пиров]
Size:  190 MB   |    Registered:  8 months   |    Completed:  0 times

Seeder not seen: Never

 
   
 
 
 
Author Message

Генри

Post 17-Mar-2019 20:37

[Quote]

Nitty Gritty / General Penitentiary
Жанр: Dancehall, Ragga
Носитель: CD
Страна-производитель диска (релиза): UK
Год издания: 2011 (1987)
Издатель (лейбл): Dug Out ‎
Номер по каталогу: DO-ADM080CD
Аудиокодек: FLAC (*.flac)
Тип рипа: tracks+.cue
Битрейт аудио: lossless
Продолжительность: 00:30:00
Источник: локальная сеть
Наличие сканов в содержимом раздачи: да
Треклист:
1 General Penitentiary
2 Penitentiary Dub
3 Can't Test Me
4 Test Me Dub
5 Tell Ne Whata Gwann
6 Gwann Dub
7 Under The Moonlight
8 Moonlight Dub

Лог создания рипа

Exact Audio Copy V1.0 beta 1 from 15. November 2010
EAC extraction logfile from 7. May 2011, 12:37
Nitty Gritty / General Penitentiary
Used drive : TSSTcorpCDDVDW SH-S223F Adapter: 1 ID: 0
Read mode : SecureUtilize accurate stream : YesDefeat audio cache : YesMake use of C2 pointers : No
Read offset correction : 6Overread into Lead-In and Lead-Out : NoFill up missing offset samples with silence : YesDelete leading and trailing silent blocks : NoNull samples used in CRC calculations : YesUsed interface : Native Win32 interface for Win NT & 2000Gap handling : Appended to previous track
Used output format : User Defined EncoderSelected bitrate : 256 kBit/sQuality : HighAdd ID3 tag : NoCommand line compressor : C:\Program Files\Exact Audio Copy 1.0\Flac\flac.exeAdditional command line options : -V -8 -T "ARTIST=%a" -T "TITLE=%t" -T "ALBUM=%g" -T "DATE=%y" -T "TRACKNUMBER=%n" -T "GENRE=%m" -T "COMMENT=%e" %s -o %d
TOC of the extracted CD
Track | Start | Length | Start sector | End sector --------------------------------------------------------- 1 | 0:00.00 | 3:45.38 | 0 | 16912 2 | 3:45.38 | 3:41.11 | 16913 | 33498 3 | 7:26.49 | 3:55.52 | 33499 | 51175 4 | 11:22.26 | 3:31.07 | 51176 | 67007 5 | 14:53.33 | 3:43.69 | 67008 | 83801 6 | 18:37.27 | 3:42.02 | 83802 | 100453 7 | 22:19.29 | 3:55.17 | 100454 | 118095 8 | 26:14.46 | 3:48.44 | 118096 | 135239
Track 1
Filename D:\Dont_seed_or_share_this_rip_anywhere_else\01 - General Penitentiary.wav
Pre-gap length 0:00:02.00
Peak level 99.1 % Extraction speed 1.7 X Track quality 100.0 % Test CRC C2078FD7 Copy CRC C2078FD7 Track not present in AccurateRip database Copy OK
Track 2
Filename D:\Dont_seed_or_share_this_rip_anywhere_else\02 - Penitentiary Dub.wav
Peak level 93.6 % Extraction speed 1.6 X Track quality 99.9 % Test CRC 7F5A8005 Copy CRC 7F5A8005 Track not present in AccurateRip database Copy OK
Track 3
Filename D:\Dont_seed_or_share_this_rip_anywhere_else\03 - Can't Test Me.wav
Peak level 98.9 % Extraction speed 2.0 X Track quality 100.0 % Test CRC 818BADF2 Copy CRC 818BADF2 Track not present in AccurateRip database Copy OK
Track 4
Filename D:\Dont_seed_or_share_this_rip_anywhere_else\04 - Test Me Dub.wav
Peak level 93.7 % Extraction speed 2.2 X Track quality 100.0 % Test CRC 01A50D74 Copy CRC 01A50D74 Track not present in AccurateRip database Copy OK
Track 5
Filename D:\Dont_seed_or_share_this_rip_anywhere_else\05 - Tell Me WHata Gwann.wav
Peak level 89.5 % Extraction speed 2.4 X Track quality 100.0 % Test CRC EE1B89C6 Copy CRC EE1B89C6 Track not present in AccurateRip database Copy OK
Track 6
Filename D:\Dont_seed_or_share_this_rip_anywhere_else\06 - Gwann Dub.wav
Peak level 97.3 % Extraction speed 2.5 X Track quality 100.0 % Test CRC 7DE7913F Copy CRC 7DE7913F Track not present in AccurateRip database Copy OK
Track 7
Filename D:\Dont_seed_or_share_this_rip_anywhere_else\07 - Under The Moonlight.wav
Peak level 99.1 % Extraction speed 2.6 X Track quality 100.0 % Test CRC EA8EC6D4 Copy CRC EA8EC6D4 Track not present in AccurateRip database Copy OK
Track 8
Filename D:\Dont_seed_or_share_this_rip_anywhere_else\08 - Moonlight Dub.wav
Peak level 98.5 % Extraction speed 2.7 X Track quality 100.0 % Test CRC 2A54F286 Copy CRC 2A54F286 Track not present in AccurateRip database Copy OK
None of the tracks are present in the AccurateRip database
No errors occurred
End of status report
==== Log checksum 91408291C71C206584032C45CCB547522C5495DA9D02BD02127100003800CBFB ====

Содержание индексной карты (.CUE)

REM GENRE ReggaeREM DATE 2011REM DISCID 6D070B08REM COMMENT "ExactAudioCopy v1.0b1"PERFORMER "Nitty Gritty"TITLE "General Penitentiary"FILE "01 - General Penitentiary.wav" WAVE TRACK 01 AUDIO TITLE "General Penitentiary" PERFORMER "Nitty Gritty" INDEX 01 00:00:00FILE "02 - Penitentiary Dub.wav" WAVE TRACK 02 AUDIO TITLE "Penitentiary Dub" PERFORMER "Nitty Gritty" INDEX 01 00:00:00FILE "03 - Can't Test Me.wav" WAVE TRACK 03 AUDIO TITLE "Can't Test Me" PERFORMER "Nitty Gritty" INDEX 01 00:00:00FILE "04 - Test Me Dub.wav" WAVE TRACK 04 AUDIO TITLE "Test Me Dub" PERFORMER "Nitty Gritty" INDEX 01 00:00:00FILE "05 - Tell Me WHata Gwann.wav" WAVE TRACK 05 AUDIO TITLE "Tell Me WHata Gwann" PERFORMER "Nitty Gritty" INDEX 01 00:00:00FILE "06 - Gwann Dub.wav" WAVE TRACK 06 AUDIO TITLE "Gwann Dub" PERFORMER "Nitty Gritty" INDEX 01 00:00:00FILE "07 - Under The Moonlight.wav" WAVE TRACK 07 AUDIO TITLE "Under The Moonlight" PERFORMER "Nitty Gritty" INDEX 01 00:00:00FILE "08 - Moonlight Dub.wav" WAVE TRACK 08 AUDIO TITLE "Moonlight Dub" PERFORMER "Nitty Gritty" INDEX 01 00:00:00


[geo-torrent.biz]_t_5704759.torrent
Torrent: Registered ·  [ 2019-03-17 20:37 ] ·  e099e33d597c445662bfd5dcd73d4c7614ae53d5

16 KB

Status: checked
Completed: 0 times
Size: 190 MB
Rating: 
(Votes: 0)
Say thanks: 0  Thanks
Похожие темы
[Profile]    [PM]
Display posts from previous:    
Reply to topic

The time now is: Today 08:35

All times are GMT + 7 Hours



You cannot post new topics in this forum
You cannot reply to topics in this forum
You cannot edit your posts in this forum
You cannot delete your posts in this forum
You cannot vote in polls in this forum
You cannot attach files in this forum
You can download files in this forum