[DTSCD][UP] 2 Unlimited - No Limits - 1993 (Eurodance, Techno)

Reply to topic
DL-List and Torrent activity [Update пиров]
Size:  597 MB   |    Registered:  6 months 29 days   |    Completed:  0 times

Seeder not seen: Never

 
   
 
 
 
Author Message

Генри

Post 21-Apr-2019 04:15

[Quote]

2 Unlimited - No Limits DTS UPMix
Формат файла записи/Источник записи: [DTSCD][UP]
Наличие водяных знаков: Нет
Год издания/переиздания диска: 1993
Жанр: Eurodance, Techno
Издатель(лейбл): Steve Aoki Extended
Наличие сканов в содержимом раздачи: Да (сканы)
Треклист:
01 No Limit
02 Tribal Dance
03 Mysterious
04 Faces
05 Maximum Overdrive
06 The Power Age
07 Break the Chain
08 Kiss Me Bliss Me
09 Throw the Groove Down
10 R.U.O.K.
11 Let the Beat Control Your Body
12 Invite Me to Trance
13 Where Are You Now
14 Shelter For a Rainy Day
Формат файла: WAV(*.wav)
Тип рипа: tracks
Разрядность: 16/44,1
Формат файла: DTS
Количество каналов: 5.1
Битрейт аудио: 1411 kbps

DR-лог

foobar2000 1.4.2 / Dynamic Range Meter 1.1.1log date: 2019-04-14 17:36:50
--------------------------------------------------------------------------------Analyzed: ? / ?--------------------------------------------------------------------------------
DR Peak RMS Duration Track--------------------------------------------------------------------------------DR10 -0.24 dB -12.86 dB 3:47 ?-01_2 Unlimited - No Limits DTSDR11 -0.23 dB -12.86 dB 4:32 ?-02_2 Unlimited - Tribal Dance DTSDR10 -0.30 dB -12.84 dB 3:57 ?-03_2 Unlimited - Mysterious DTSDR11 -0.11 dB -12.91 dB 3:27 ?-04_2 Unlimited - Faces DTSDR11 -0.26 dB -12.86 dB 3:29 ?-05_2 Unlimited - Maximum Overdrive DTSDR11 -0.06 dB -12.86 dB 3:53 ?-06_2 Unlimited - The Power Age DTSDR11 -0.17 dB -12.86 dB 3:20 ?-07_2 Unlimited - Break The Chain DTSDR10 -0.20 dB -12.88 dB 3:31 ?-08_2 Unlimited - Kisss Me Bliss Me DTSDR11 -0.34 dB -13.13 dB 3:51 ?-09_2 Unlimited - Throw The Groove Down DTSDR11 -0.38 dB -12.89 dB 3:28 ?-10_2 Unlimited - R.U.O.K. DTSDR11 -0.24 dB -12.87 dB 3:43 ?-11_2 Unlimited - Let The Beat Control Your Body DTSDR10 -0.34 dB -12.72 dB 4:09 ?-12_2 Unlimited - Invite Me To Trance DTSDR11 -0.52 dB -12.82 dB 5:03 ?-13_2 Unlimited - Where Are You Now DTSDR11 -0.20 dB -12.83 dB 5:15 ?-14_2 Unlimited - Shelter For A Rainy Day DTS--------------------------------------------------------------------------------
Number of tracks: 14Official DR value: DR11
Samplerate: 44100 HzChannels: 6Bits per sample: 16Bitrate: 1411 kbpsCodec: DTS================================================================================
Источник (релизер): Оригинальный CD
Доп. информация: DJ S.A.W. DTS Upmix
Метод получения апмикса:
ручное выделение фазо-частотных фрагментов фонограммы с помощью функции CCE Adobe Audition
мультиканальный мастеринг – Аdobe Audition (встроенными эффектами и плагинами Waves, iZotope,
Starplugs и т.п.)


[geo-torrent.biz]_t_4982467.torrent
Torrent: Registered ·  [ 2019-04-21 04:15 ] ·  5ba61584c9b0962fe57b8d63005f87b4812a0465

14 KB

Status: checked
Completed: 0 times
Size: 597 MB
Rating: 
(Votes: 0)
Say thanks: 0  Thanks
Похожие темы
[Profile]    [PM]
Display posts from previous:    
Reply to topic

The time now is: Today 13:04

All times are GMT + 7 Hours



You cannot post new topics in this forum
You cannot reply to topics in this forum
You cannot edit your posts in this forum
You cannot delete your posts in this forum
You cannot vote in polls in this forum
You cannot attach files in this forum
You can download files in this forum