(Roots Reggae) [CD] Capital Letters - Wolverhampton - 2015, FLAC (tracks+.cue), lossless

Reply to topic
DL-List and Torrent activity [Update пиров]
Size:  331 MB   |    Registered:  6 months 13 days   |    Completed:  0 times

Seeder not seen: Never

 
   
 
 
 
Author Message

Генри

Post 04-May-2019 22:16

[Quote]

Capital Letters / Wolverhampton
Жанр: Roots Reggae
Носитель: CD
Страна-производитель диска (релиза): UK
Год издания: 2015
Издатель (лейбл): Sugar Shack Records
Номер по каталогу: FOD106CD
Аудиокодек: FLAC (*.flac)
Тип рипа: tracks+.cue
Битрейт аудио: lossless
Продолжительность: 00:55:50
Источник: локальная сеть
Наличие сканов в содержимом раздачи: нет
Треклист:
1 Jah Music
2 Wolf
3 Roots Music
4 Opportunity
5 Wolverhampton
6 Dat Nah Stop
7 Thanks And Praise
8 Try Try Try
9 Tell Me What's Wrong
10 Movie Star
11 Pumping
12 Jamaica
13 False Natty
14 A Place On Earth

Лог создания рипа

Exact Audio Copy V1.0 beta 3 from 29. August 2011
EAC extraction logfile from 1. June 2015, 19:00
Capital Letters / Wolverhampton
Used drive : TSSTcorpCDDVDW SE-S084F Adapter: 5 ID: 0
Read mode : SecureUtilize accurate stream : YesDefeat audio cache : YesMake use of C2 pointers : No
Read offset correction : 6Overread into Lead-In and Lead-Out : NoFill up missing offset samples with silence : YesDelete leading and trailing silent blocks : NoNull samples used in CRC calculations : YesUsed interface : Installed external ASPI interfaceGap handling : Appended to previous track
Used output format : User Defined EncoderSelected bitrate : 1024 kBit/sQuality : HighAdd ID3 tag : NoCommand line compressor : C:\Program Files\Exact Audio Copy\Flac\flac.exeAdditional command line options : -8 -V -T "ARTIST=%artist%" -T "TITLE=%title%" -T "ALBUM=%albumtitle%" -T "DATE=%year%" -T "TRACKNUMBER=%tracknr%" -T "GENRE=%genre%" -T "PERFORMER=%albuminterpret%" -T "COMPOSER=%composer%" %haslyrics%--tag-from-file=LYRICS="%lyricsfile%"%haslyrics% -T "ALBUMARTIST=%albumartist%" -T "DISCNUMBER=%cdnumber%" -T "TOTALDISCS=%totalcds%" -T "TOTALTRACKS=%numtracks%" -T "COMMENT=EAC V1.0 b3, Slow Secure Mode, Test & Copy, AccurateRip, FLAC -8" %source% -o %dest%
TOC of the extracted CD
Track | Start | Length | Start sector | End sector --------------------------------------------------------- 1 | 0:00.00 | 4:13.56 | 0 | 19030 2 | 4:13.56 | 4:13.00 | 19031 | 38005 3 | 8:26.56 | 3:38.42 | 38006 | 54397 4 | 12:05.23 | 3:51.48 | 54398 | 71770 5 | 15:56.71 | 3:34.40 | 71771 | 87860 6 | 19:31.36 | 3:43.32 | 87861 | 104617 7 | 23:14.68 | 3:46.33 | 104618 | 121600 8 | 27:01.26 | 3:09.29 | 121601 | 135804 9 | 30:10.55 | 4:48.43 | 135805 | 157447 10 | 34:59.23 | 4:08.41 | 157448 | 176088 11 | 39:07.64 | 4:18.74 | 176089 | 195512 12 | 43:26.63 | 4:33.27 | 195513 | 216014 13 | 48:00.15 | 4:17.21 | 216015 | 235310 14 | 52:17.36 | 3:39.47 | 235311 | 251782
Track 1
Filename C:\EAC\LDT\Capital Letters - Wolverhampton (2015) [FLAC] { Sugar Shack Records, FOD 106D, 14 TRK }\01 - Jah Music.wav
Pre-gap length 0:00:02.00
Peak level 97.7 % Extraction speed 2.5 X Track quality 100.0 % Test CRC EF3ECE01 Copy CRC EF3ECE01 Track not present in AccurateRip database Copy OK
Track 2
Filename C:\EAC\LDT\Capital Letters - Wolverhampton (2015) [FLAC] { Sugar Shack Records, FOD 106D, 14 TRK }\02 - Wolf.wav
Pre-gap length 0:00:02.00
Peak level 97.7 % Extraction speed 2.9 X Track quality 100.0 % Test CRC 0D587357 Copy CRC 0D587357 Track not present in AccurateRip database Copy OK
Track 3
Filename C:\EAC\LDT\Capital Letters - Wolverhampton (2015) [FLAC] { Sugar Shack Records, FOD 106D, 14 TRK }\03 - Roots Music.wav
Pre-gap length 0:00:02.00
Peak level 98.2 % Extraction speed 3.0 X Track quality 100.0 % Test CRC 0870B5BA Copy CRC 0870B5BA Track not present in AccurateRip database Copy OK
Track 4
Filename C:\EAC\LDT\Capital Letters - Wolverhampton (2015) [FLAC] { Sugar Shack Records, FOD 106D, 14 TRK }\04 - Opportunity.wav
Pre-gap length 0:00:02.00
Peak level 97.7 % Extraction speed 3.3 X Track quality 100.0 % Test CRC 4D2C6062 Copy CRC 4D2C6062 Track not present in AccurateRip database Copy OK
Track 5
Filename C:\EAC\LDT\Capital Letters - Wolverhampton (2015) [FLAC] { Sugar Shack Records, FOD 106D, 14 TRK }\05 - Wolverhampton.wav
Pre-gap length 0:00:02.00
Peak level 97.7 % Extraction speed 3.4 X Track quality 100.0 % Test CRC 9D90FFFE Copy CRC 9D90FFFE Track not present in AccurateRip database Copy OK
Track 6
Filename C:\EAC\LDT\Capital Letters - Wolverhampton (2015) [FLAC] { Sugar Shack Records, FOD 106D, 14 TRK }\06 - Dat Nah Stop.wav
Pre-gap length 0:00:02.00
Peak level 98.5 % Extraction speed 2.9 X Track quality 99.9 % Test CRC BD30FA23 Copy CRC BD30FA23 Track not present in AccurateRip database Copy OK
Track 7
Filename C:\EAC\LDT\Capital Letters - Wolverhampton (2015) [FLAC] { Sugar Shack Records, FOD 106D, 14 TRK }\07 - Thanks And Praise.wav
Pre-gap length 0:00:02.00
Peak level 97.7 % Extraction speed 3.7 X Track quality 100.0 % Test CRC F5FA4297 Copy CRC F5FA4297 Track not present in AccurateRip database Copy OK
Track 8
Filename C:\EAC\LDT\Capital Letters - Wolverhampton (2015) [FLAC] { Sugar Shack Records, FOD 106D, 14 TRK }\08 - Try Try Try.wav
Pre-gap length 0:00:02.00
Peak level 97.7 % Extraction speed 3.8 X Track quality 100.0 % Test CRC E502B608 Copy CRC E502B608 Track not present in AccurateRip database Copy OK
Track 9
Filename C:\EAC\LDT\Capital Letters - Wolverhampton (2015) [FLAC] { Sugar Shack Records, FOD 106D, 14 TRK }\09 - Tell Me What's Wrong.wav
Pre-gap length 0:00:02.00
Peak level 97.7 % Extraction speed 4.0 X Track quality 100.0 % Test CRC A2E76B05 Copy CRC A2E76B05 Track not present in AccurateRip database Copy OK
Track 10
Filename C:\EAC\LDT\Capital Letters - Wolverhampton (2015) [FLAC] { Sugar Shack Records, FOD 106D, 14 TRK }\10 - Movie Star.wav
Pre-gap length 0:00:02.00
Peak level 98.0 % Extraction speed 4.3 X Track quality 100.0 % Test CRC E74C3E83 Copy CRC E74C3E83 Track not present in AccurateRip database Copy OK
Track 11
Filename C:\EAC\LDT\Capital Letters - Wolverhampton (2015) [FLAC] { Sugar Shack Records, FOD 106D, 14 TRK }\11 - Pumping.wav
Pre-gap length 0:00:02.00
Peak level 97.9 % Extraction speed 4.5 X Track quality 100.0 % Test CRC 7A96B523 Copy CRC 7A96B523 Track not present in AccurateRip database Copy OK
Track 12
Filename C:\EAC\LDT\Capital Letters - Wolverhampton (2015) [FLAC] { Sugar Shack Records, FOD 106D, 14 TRK }\12 - Jamaica.wav
Pre-gap length 0:00:02.00
Peak level 97.7 % Extraction speed 4.7 X Track quality 100.0 % Test CRC 871EC189 Copy CRC 871EC189 Track not present in AccurateRip database Copy OK
Track 13
Filename C:\EAC\LDT\Capital Letters - Wolverhampton (2015) [FLAC] { Sugar Shack Records, FOD 106D, 14 TRK }\13 - False Natty.wav
Pre-gap length 0:00:02.00
Peak level 97.7 % Extraction speed 3.8 X Track quality 99.9 % Test CRC 1FFC4CC8 Copy CRC 1FFC4CC8 Track not present in AccurateRip database Copy OK
Track 14
Filename C:\EAC\LDT\Capital Letters - Wolverhampton (2015) [FLAC] { Sugar Shack Records, FOD 106D, 14 TRK }\14 - A Place On Earth.wav
Pre-gap length 0:00:02.00
Peak level 97.7 % Extraction speed 4.7 X Track quality 100.0 % Test CRC 24C860A1 Copy CRC 24C860A1 Track not present in AccurateRip database Copy OK
None of the tracks are present in the AccurateRip database
No errors occurred
End of status report
==== Log checksum 700902B2375855B0CBCAC0431FAF954BC42EEF1673703329309D895FF8BB64A7 ====

Содержание индексной карты (.CUE)

REM GENRE ReggaeREM DATE 2015REM DISCID C20D1D0EREM COMMENT "ExactAudioCopy v1.0b3"PERFORMER "Capital Letters"TITLE "Wolverhampton"FILE "01 - Jah Music.wav" WAVE TRACK 01 AUDIO TITLE "Jah Music" PERFORMER "Capital Letters" FLAGS DCP INDEX 01 00:00:00 TRACK 02 AUDIO TITLE "Wolf" PERFORMER "Capital Letters" FLAGS DCP INDEX 00 04:11:56FILE "02 - Wolf.wav" WAVE INDEX 01 00:00:00 TRACK 03 AUDIO TITLE "Roots Music" PERFORMER "Capital Letters" FLAGS DCP INDEX 00 04:11:00FILE "03 - Roots Music.wav" WAVE INDEX 01 00:00:00 TRACK 04 AUDIO TITLE "Opportunity" PERFORMER "Capital Letters" FLAGS DCP INDEX 00 03:36:42FILE "04 - Opportunity.wav" WAVE INDEX 01 00:00:00 TRACK 05 AUDIO TITLE "Wolverhampton" PERFORMER "Capital Letters" FLAGS DCP INDEX 00 03:49:48FILE "05 - Wolverhampton.wav" WAVE INDEX 01 00:00:00 TRACK 06 AUDIO TITLE "Dat Nah Stop" PERFORMER "Capital Letters" FLAGS DCP INDEX 00 03:32:40FILE "06 - Dat Nah Stop.wav" WAVE INDEX 01 00:00:00 TRACK 07 AUDIO TITLE "Thanks And Praise" PERFORMER "Capital Letters" FLAGS DCP INDEX 00 03:41:32FILE "07 - Thanks And Praise.wav" WAVE INDEX 01 00:00:00 TRACK 08 AUDIO TITLE "Try Try Try" PERFORMER "Capital Letters" FLAGS DCP INDEX 00 03:44:33FILE "08 - Try Try Try.wav" WAVE INDEX 01 00:00:00 TRACK 09 AUDIO TITLE "Tell Me What's Wrong" PERFORMER "Capital Letters" FLAGS DCP INDEX 00 03:07:29FILE "09 - Tell Me What's Wrong.wav" WAVE INDEX 01 00:00:00 TRACK 10 AUDIO TITLE "Movie Star" PERFORMER "Capital Letters" FLAGS DCP INDEX 00 04:46:43FILE "10 - Movie Star.wav" WAVE INDEX 01 00:00:00 TRACK 11 AUDIO TITLE "Pumping" PERFORMER "Capital Letters" FLAGS DCP INDEX 00 04:06:41FILE "11 - Pumping.wav" WAVE INDEX 01 00:00:00 TRACK 12 AUDIO TITLE "Jamaica" PERFORMER "Capital Letters" FLAGS DCP INDEX 00 04:16:74FILE "12 - Jamaica.wav" WAVE INDEX 01 00:00:00 TRACK 13 AUDIO TITLE "False Natty" PERFORMER "Capital Letters" FLAGS DCP INDEX 00 04:31:27FILE "13 - False Natty.wav" WAVE INDEX 01 00:00:00 TRACK 14 AUDIO TITLE "A Place On Earth" PERFORMER "Capital Letters" FLAGS DCP INDEX 00 04:15:21FILE "14 - A Place On Earth.wav" WAVE INDEX 01 00:00:00


[geo-torrent.biz]_t_5715297.torrent
Torrent: Registered ·  [ 2019-05-04 22:09 ] ·  7bcb51fa1004511644d44473c5c48c37a267386c

14 KB

Status: checked
Completed: 0 times
Size: 331 MB
Rating: 
(Votes: 0)
Say thanks: 0  Thanks
Похожие темы
[Profile]    [PM]
Display posts from previous:    
Reply to topic

The time now is: Today 07:31

All times are GMT + 7 Hours



You cannot post new topics in this forum
You cannot reply to topics in this forum
You cannot edit your posts in this forum
You cannot delete your posts in this forum
You cannot vote in polls in this forum
You cannot attach files in this forum
You can download files in this forum