(Dub) [CD] Alpha & Omega - Sound System Dub - 1995, FLAC (tracks+.cue), lossless

Reply to topic
DL-List and Torrent activity [Update пиров]
Size:  347 MB   |    Registered:  6 months 13 days   |    Completed:  0 times

Seeder not seen: Never

 
   
 
 
 
Author Message

Генри

Post 04-May-2019 22:16

[Quote]

Alpha & Omega / Sound System Dub
Жанр: Dub
Носитель: CD
Страна-производитель диска (релиза): US
Год издания: 1995
Издатель (лейбл): ROIR (Reachout International Records)
Номер по каталогу: RUSCD 821
Аудиокодек: FLAC (*.flac)
Тип рипа: tracks+.cue
Битрейт аудио: lossless
Продолжительность: 00:59:29
Источник: локальная сеть
Наличие сканов в содержимом раздачи: да
Треклист:
1 Rastafari
2 Freedom Fighters
3 Africa / Ethiopa
4 Warrior
5 Conscious Black Woman
6 Dub Flute
7 Fire
8 Merciful Jah
9 Sheba's Journey
10 Who Is The Ruler?
11 Sharu Att Our Aunt
12 Ancient African Dub
13 Show Me A Purpose
14 Pure & Clean
15 Dub Is A Principal Thing

Лог создания рипа

EAC extraction logfile from 1. December 2007, 14:11 for CDAlpha & Omega /
Used drive : PHILIPS DVDR1648P1 Adapter: 0 ID: 1Read mode : Secure with NO C2, accurate stream, disable cacheRead offset correction : 618Overread into Lead-In and Lead-Out : No
Used output format : Internal WAV Routines 44.100 Hz; 16 Bit; Stereo
Other options : Fill up missing offset samples with silence : Yes Delete leading and trailing silent blocks : No Native Win32 interface for Win NT & 2000
Track 1 Filename F:\~ fertig ~\01 Alpha & Omega Rastafari.wav
Peak level 94.6 % Track quality 100.0 % Test CRC AF2D8C78 Copy CRC AF2D8C78 Copy OK
Track 2 Filename F:\~ fertig ~\02 Alpha & Omega Freedom Fighters.wav
Peak level 95.8 % Track quality 99.9 % Test CRC 86052966 Copy CRC 86052966 Copy OK
Track 3 Filename F:\~ fertig ~\03 Alpha & Omega Africa,Ethiopia.wav
Peak level 94.2 % Track quality 99.9 % Test CRC FC01793F Copy CRC FC01793F Copy OK
Track 4 Filename F:\~ fertig ~\04 Alpha & Omega Warrior.wav
Peak level 97.8 % Track quality 100.0 % Test CRC 2B311BE2 Copy CRC 2B311BE2 Copy OK
Track 5 Filename F:\~ fertig ~\05 Alpha & Omega Conscious Black Woman.wav
Peak level 96.7 % Track quality 99.9 % Test CRC 34DB5EE7 Copy CRC 34DB5EE7 Copy OK
Track 6 Filename F:\~ fertig ~\06 Alpha & Omega Dub Flute.wav
Peak level 98.6 % Track quality 100.0 % Test CRC 0D262C70 Copy CRC 0D262C70 Copy OK
Track 7 Filename F:\~ fertig ~\07 Alpha & Omega Fire.wav
Peak level 95.9 % Track quality 100.0 % Test CRC 864878EF Copy CRC 864878EF Copy OK
Track 8 Filename F:\~ fertig ~\08 Alpha & Omega Merciful Jah.wav
Peak level 93.7 % Track quality 99.9 % Test CRC 5A39300B Copy CRC 5A39300B Copy OK
Track 9 Filename F:\~ fertig ~\09 Alpha & Omega Sheba's Journey.wav
Peak level 92.0 % Track quality 100.0 % Test CRC 951461C6 Copy CRC 951461C6 Copy OK
Track 10 Filename F:\~ fertig ~\10 Alpha & Omega Who Is The Ruler.wav
Peak level 97.2 % Track quality 100.0 % Test CRC 6FFB9CA1 Copy CRC 6FFB9CA1 Copy OK
Track 11 Filename F:\~ fertig ~\11 Alpha & Omega Sharu Att Our Aunt.wav
Peak level 90.8 % Track quality 100.0 % Test CRC DF874AC4 Copy CRC DF874AC4 Copy OK
Track 12 Filename F:\~ fertig ~\12 Alpha & Omega Ancient African Dub.wav
Peak level 80.9 % Track quality 100.0 % Test CRC 506C6FA9 Copy CRC 506C6FA9 Copy OK
Track 13 Filename F:\~ fertig ~\13 Alpha & Omega Show Me A Purpose.wav
Peak level 100.0 % Track quality 100.0 % Test CRC 48F95CC7 Copy CRC 48F95CC7 Copy OK
Track 14 Filename F:\~ fertig ~\14 Alpha & Omega Pure & Clean.wav
Peak level 91.7 % Track quality 100.0 % Test CRC DFF8BBB9 Copy CRC DFF8BBB9 Copy OK
Track 15 Filename F:\~ fertig ~\15 Alpha & Omega Dub Is A Principal Thing.wav
Peak level 94.4 % Track quality 99.9 % Test CRC 290EBD84 Copy CRC 290EBD84 Copy OK
No errors occured
End of status report

Содержание индексной карты (.CUE)

PERFORMER "Alpha & Omega"TITLE "Sound System Dub"FILE "01 - Rastafari.wav" WAVE TRACK 01 AUDIO TITLE "Rastafari" PERFORMER "Alpha & Omega" INDEX 01 00:00:00FILE "02 - Freedom Fighters.wav" WAVE TRACK 02 AUDIO TITLE "Freedom Fighters" PERFORMER "Alpha & Omega" FLAGS DCP INDEX 01 00:00:00FILE "03 - Africa,Ethiopia.wav" WAVE TRACK 03 AUDIO TITLE "Africa/Ethiopia" PERFORMER "Alpha & Omega" FLAGS DCP INDEX 01 00:00:00FILE "04 - Warrior.wav" WAVE TRACK 04 AUDIO TITLE "Warrior" PERFORMER "Alpha & Omega" FLAGS DCP INDEX 01 00:00:00FILE "05 - Conscious Black Woman.wav" WAVE TRACK 05 AUDIO TITLE "Conscious Black Woman" PERFORMER "Alpha & Omega" FLAGS DCP INDEX 01 00:00:00FILE "06 - Dub Flute.wav" WAVE TRACK 06 AUDIO TITLE "Dub Flute" PERFORMER "Alpha & Omega" FLAGS DCP INDEX 01 00:00:00FILE "07 - Fire.wav" WAVE TRACK 07 AUDIO TITLE "Fire" PERFORMER "Alpha & Omega" FLAGS DCP INDEX 01 00:00:00FILE "08 - Merciful Jah.wav" WAVE TRACK 08 AUDIO TITLE "Merciful Jah" PERFORMER "Alpha & Omega" FLAGS DCP INDEX 01 00:00:00FILE "09 - Sheba's Journey.wav" WAVE TRACK 09 AUDIO TITLE "Sheba's Journey" PERFORMER "Alpha & Omega" FLAGS DCP INDEX 01 00:00:00FILE "10 - Who Is The Ruler.wav" WAVE TRACK 10 AUDIO TITLE "Who Is The Ruler" PERFORMER "Alpha & Omega" FLAGS DCP INDEX 01 00:00:00FILE "11 - Sharu Att Our Aunt.wav" WAVE TRACK 11 AUDIO TITLE "Sharu Att Our Aunt" PERFORMER "Alpha & Omega" FLAGS DCP INDEX 01 00:00:00FILE "12 - Ancient African Dub.wav" WAVE TRACK 12 AUDIO TITLE "Ancient African Dub" PERFORMER "Alpha & Omega" FLAGS DCP INDEX 01 00:00:00FILE "13 - Show Me A Purpose.wav" WAVE TRACK 13 AUDIO TITLE "Show Me A Purpose" PERFORMER "Alpha & Omega" FLAGS DCP INDEX 01 00:00:00FILE "14 - Pure & Clean.wav" WAVE TRACK 14 AUDIO TITLE "Pure & Clean" PERFORMER "Alpha & Omega" FLAGS DCP INDEX 01 00:00:00FILE "15 - Dub Is A Principal Thing.wav" WAVE TRACK 15 AUDIO TITLE "Dub Is A Principal Thing" PERFORMER "Alpha & Omega" FLAGS DCP INDEX 01 00:00:00


[geo-torrent.biz]_t_5712428.torrent
Torrent: Registered ·  [ 2019-05-04 22:09 ] ·  173f3c53665137120725a8eda4cfa209fcdc0acf

15 KB

Status: checked
Completed: 0 times
Size: 347 MB
Rating: 
(Votes: 0)
Say thanks: 0  Thanks
Похожие темы
[Profile]    [PM]
Display posts from previous:    
Reply to topic

The time now is: Today 09:16

All times are GMT + 7 Hours



You cannot post new topics in this forum
You cannot reply to topics in this forum
You cannot edit your posts in this forum
You cannot delete your posts in this forum
You cannot vote in polls in this forum
You cannot attach files in this forum
You can download files in this forum