(Roots Reggae) [CD] VA - Kingston Allstars Meet Downtown At King Tubbys 1972-1975 - 2004, FLAC (tracks+.cue), lossless

Reply to topic
DL-List and Torrent activity [Update пиров]
Size:  259 MB   |    Registered:  6 months 13 days   |    Completed:  0 times

Seeder not seen: Never

 
   
 
 
 
Author Message

Генри

Post 04-May-2019 22:16

[Quote]

Kingston Allstars Meet Downtown At King Tubbys 1972-1975
Жанр: Roots Reggae
Носитель: CD
Страна-производитель диска (релиза): UK
Год издания: 2004
Издатель (лейбл): Kingston Sounds
Номер по каталогу: KSCD002
Аудиокодек: FLAC (*.flac)
Тип рипа: tracks+.cue
Битрейт аудио: lossless
Продолжительность: 00:46:22
Источник: локальная сеть
Наличие сканов в содержимом раздачи: да
Треклист:
1 Freddie McKay - Going 2:25
2 Cornell Campbell - Hear Me Now Star 3:25
3 Horace Andy - The Children 3:15
4 Johnny Clarke - No Lick No Cup 3:10
5 Linval Thompson - Trouble 3:38
6 Yabby U - Stand Up & Fight 3:29
7 Johnny Clarke - Leggo Violence 3:24
8 Jimmy Riley - Living In Fear 3:50
9 Cornell Campbell - Your Company 3:37
10 Locksley Castell - Some Good 2:58
11 Wayne Jarrett - Judgement Time 4:09
12 Linval Thompson - Di Wicked Dem 2:48
13 Ronnie Davis - Tonight 2:41
14 Cornell Campbell - Give Sweet Loving 3:35

Лог создания рипа

Exact Audio Copy V0.99 prebeta 3 from 28. July 2007
EAC extraction logfile from 15. January 2009, 19:21
Various / Kingston Allstars Meet Downtown At King Tubbys 1972-1975
Used drive : PHILIPS DVDR1628P1 Adapter: 4 ID: 0
Read mode : SecureUtilize accurate stream : YesDefeat audio cache : YesMake use of C2 pointers : No
Read offset correction : 618Overread into Lead-In and Lead-Out : NoFill up missing offset samples with silence : YesDelete leading and trailing silent blocks : NoNull samples used in CRC calculations : YesUsed interface : Native Win32 interface for Win NT & 2000Gap handling : Appended to previous track
Used output format : User Defined EncoderSelected bitrate : 128 kBit/sQuality : HighAdd ID3 tag : NoCommand line compressor : D:\Documents and Settings\branou.049665520012\Mes documents\Exact Audio Copy\Flac\flac.exeAdditional command line options : -V -8 -T "artist=%a" -T "title=%t" -T "album=%g" -T "date=%y" -T "tracknumber=%n" -T "genre=%m" %s
TOC of the extracted CD
Track | Start | Length | Start sector | End sector --------------------------------------------------------- 1 | 0:00.00 | 2:25.33 | 0 | 10907 2 | 2:25.33 | 3:24.72 | 10908 | 26279 3 | 5:50.30 | 3:15.68 | 26280 | 40972 4 | 9:06.23 | 3:10.42 | 40973 | 55264 5 | 12:16.65 | 3:38.18 | 55265 | 71632 6 | 15:55.08 | 3:28.71 | 71633 | 87303 7 | 19:24.04 | 3:24.64 | 87304 | 102667 8 | 22:48.68 | 3:50.19 | 102668 | 119936 9 | 26:39.12 | 3:37.07 | 119937 | 136218 10 | 30:16.19 | 2:58.28 | 136219 | 149596 11 | 33:14.47 | 4:09.14 | 149597 | 168285 12 | 37:23.61 | 2:48.05 | 168286 | 180890 13 | 40:11.66 | 2:41.40 | 180891 | 193005 14 | 42:53.31 | 3:35.47 | 193006 | 209177
Track 1
Filename C:\Stop Addis In The Name Of My HDD\01 - Freddie McKay - Going - Freddie McKay - Going.wav
Pre-gap length 0:00:02.00
Peak level 98.0 % Track quality 99.9 % Test CRC 75789422 Copy CRC 75789422 Copy OK
Track 2
Filename C:\Stop Addis In The Name Of My HDD\02 - Cornell Campbell - Hear Me Now Star - Cornell Campbell - Hear Me Now Star.wav
Pre-gap length 0:00:01.00
Peak level 99.9 % Track quality 100.0 % Test CRC 1E337A36 Copy CRC 1E337A36 Copy OK
Track 3
Filename C:\Stop Addis In The Name Of My HDD\03 - Horace Andy - The Children - Horace Andy - The Children.wav
Pre-gap length 0:00:00.49
Peak level 97.5 % Track quality 99.9 % Test CRC CBEF0218 Copy CRC CBEF0218 Copy OK
Track 4
Filename C:\Stop Addis In The Name Of My HDD\04 - Johnny Clarke - No Lick No Cup - Johnny Clarke - No Lick No Cup.wav
Pre-gap length 0:00:00.45
Peak level 98.5 % Track quality 100.0 % Test CRC DF5B0A9F Copy CRC DF5B0A9F Copy OK
Track 5
Filename C:\Stop Addis In The Name Of My HDD\05 - Linval Thompson - Trouble - Linval Thompson - Trouble.wav
Pre-gap length 0:00:01.00
Peak level 99.9 % Track quality 100.0 % Test CRC CFEC211A Copy CRC CFEC211A Copy OK
Track 6
Filename C:\Stop Addis In The Name Of My HDD\06 - Yabby U - Stand Up and Fight - Yabby U - Stand Up and Fight.wav
Pre-gap length 0:00:00.82
Peak level 98.6 % Track quality 100.0 % Test CRC 6C49A1B2 Copy CRC 6C49A1B2 Copy OK
Track 7
Filename C:\Stop Addis In The Name Of My HDD\07 - Johnny Clarke - Leggo Violence - Johnny Clarke - Leggo Violence.wav
Pre-gap length 0:00:00.80
Peak level 97.7 % Track quality 99.9 % Test CRC A20F1CBF Copy CRC A20F1CBF Copy OK
Track 8
Filename C:\Stop Addis In The Name Of My HDD\08 - Jimmy Riley - Living In Fear - Jimmy Riley - Living In Fear.wav
Pre-gap length 0:00:00.65
Peak level 98.2 % Track quality 100.0 % Test CRC F74E88D6 Copy CRC F74E88D6 Copy OK
Track 9
Filename C:\Stop Addis In The Name Of My HDD\09 - Cornell Campbell - Your Company - Cornell Campbell - Your Company.wav
Pre-gap length 0:00:00.68
Peak level 97.9 % Track quality 100.0 % Test CRC 65C6BCEF Copy CRC 65C6BCEF Copy OK
Track 10
Filename C:\Stop Addis In The Name Of My HDD\10 - Locksley Castell - Some Good - Locksley Castell - Some Good.wav
Pre-gap length 0:00:00.48
Peak level 98.5 % Track quality 100.0 % Test CRC 53CC2A2A Copy CRC 53CC2A2A Copy OK
Track 11
Filename C:\Stop Addis In The Name Of My HDD\11 - Wayne Jarrett - Judgement Time - Wayne Jarrett - Judgement Time.wav
Pre-gap length 0:00:00.77
Peak level 96.2 % Track quality 100.0 % Test CRC 88347F13 Copy CRC 88347F13 Copy OK
Track 12
Filename C:\Stop Addis In The Name Of My HDD\12 - Linval Thompson - De Wicked Dem - Linval Thompson - De Wicked Dem.wav
Pre-gap length 0:00:00.24
Peak level 99.9 % Track quality 100.0 % Test CRC F063E5EB Copy CRC F063E5EB Copy OK
Track 13
Filename C:\Stop Addis In The Name Of My HDD\13 - Ronnie Davis - Tonight - Ronnie Davis - Tonight.wav
Pre-gap length 0:00:00.25
Peak level 98.3 % Track quality 100.0 % Test CRC E234010B Copy CRC E234010B Copy OK
Track 14
Filename C:\Stop Addis In The Name Of My HDD\14 - Cornell Campbell - Give Sweet Loving - Cornell Campbell - Give Sweet Loving.wav
Pre-gap length 0:00:00.52
Peak level 99.9 % Track quality 100.0 % Test CRC EEB37D5E Copy CRC EEB37D5E Copy OK
No errors occurred
End of status report

Содержание индексной карты (.CUE)

REM GENRE ReggaeREM DATE 1974REM DISCID C60AE50EREM COMMENT "ExactAudioCopy v0.99pb3"PERFORMER "Various"TITLE "Kingston Allstars Meet Downtown At King Tubbys 1972-1975"FILE "01 - Freddie McKay - Going - Freddie McKay - Going.wav" WAVE TRACK 01 AUDIO TITLE "Freddie McKay - Going" PERFORMER "Freddie McKay - Going" FLAGS DCP INDEX 01 00:00:00 TRACK 02 AUDIO TITLE "Cornell Campbell - Hear Me Now Star" PERFORMER "Cornell Campbell - Hear Me Now Star" FLAGS DCP INDEX 00 02:24:33FILE "02 - Cornell Campbell - Hear Me Now Star - Cornell Campbell - Hear Me Now Star.wav" WAVE INDEX 01 00:00:00 TRACK 03 AUDIO TITLE "Horace Andy - The Children" PERFORMER "Horace Andy - The Children" FLAGS DCP INDEX 00 03:24:35FILE "03 - Horace Andy - The Children - Horace Andy - The Children.wav" WAVE INDEX 01 00:00:00 TRACK 04 AUDIO TITLE "Johnny Clarke - No Lick No Cup" PERFORMER "Johnny Clarke - No Lick No Cup" FLAGS DCP INDEX 00 03:15:34FILE "04 - Johnny Clarke - No Lick No Cup - Johnny Clarke - No Lick No Cup.wav" WAVE INDEX 01 00:00:00 TRACK 05 AUDIO TITLE "Linval Thompson - Trouble" PERFORMER "Linval Thompson - Trouble" FLAGS DCP INDEX 00 03:09:42FILE "05 - Linval Thompson - Trouble - Linval Thompson - Trouble.wav" WAVE INDEX 01 00:00:00 TRACK 06 AUDIO TITLE "Yabby U - Stand Up and Fight" PERFORMER "Yabby U - Stand Up and Fight" FLAGS DCP INDEX 00 03:37:31FILE "06 - Yabby U - Stand Up and Fight - Yabby U - Stand Up and Fight.wav" WAVE INDEX 01 00:00:00 TRACK 07 AUDIO TITLE "Johnny Clarke - Leggo Violence" PERFORMER "Johnny Clarke - Leggo Violence" FLAGS DCP INDEX 00 03:28:11FILE "07 - Johnny Clarke - Leggo Violence - Johnny Clarke - Leggo Violence.wav" WAVE INDEX 01 00:00:00 TRACK 08 AUDIO TITLE "Jimmy Riley - Living In Fear" PERFORMER "Jimmy Riley - Living In Fear" FLAGS DCP INDEX 00 03:24:15FILE "08 - Jimmy Riley - Living In Fear - Jimmy Riley - Living In Fear.wav" WAVE INDEX 01 00:00:00 TRACK 09 AUDIO TITLE "Cornell Campbell - Your Company" PERFORMER "Cornell Campbell - Your Company" FLAGS DCP INDEX 00 03:49:43FILE "09 - Cornell Campbell - Your Company - Cornell Campbell - Your Company.wav" WAVE INDEX 01 00:00:00 TRACK 10 AUDIO TITLE "Locksley Castell - Some Good" PERFORMER "Locksley Castell - Some Good" FLAGS DCP INDEX 00 03:36:46FILE "10 - Locksley Castell - Some Good - Locksley Castell - Some Good.wav" WAVE INDEX 01 00:00:00 TRACK 11 AUDIO TITLE "Wayne Jarrett - Judgement Time" PERFORMER "Wayne Jarrett - Judgement Time" FLAGS DCP INDEX 00 02:57:45FILE "11 - Wayne Jarrett - Judgement Time - Wayne Jarrett - Judgement Time.wav" WAVE INDEX 01 00:00:00 TRACK 12 AUDIO TITLE "Linval Thompson - De Wicked Dem" PERFORMER "Linval Thompson - De Wicked Dem" FLAGS DCP INDEX 00 04:08:71FILE "12 - Linval Thompson - De Wicked Dem - Linval Thompson - De Wicked Dem.wav" WAVE INDEX 01 00:00:00 TRACK 13 AUDIO TITLE "Ronnie Davis - Tonight" PERFORMER "Ronnie Davis - Tonight" FLAGS DCP INDEX 00 02:47:61FILE "13 - Ronnie Davis - Tonight - Ronnie Davis - Tonight.wav" WAVE INDEX 01 00:00:00 TRACK 14 AUDIO TITLE "Cornell Campbell - Give Sweet Loving" PERFORMER "Cornell Campbell - Give Sweet Loving" FLAGS DCP INDEX 00 02:41:01FILE "14 - Cornell Campbell - Give Sweet Loving - Cornell Campbell - Give Sweet Loving.wav" WAVE INDEX 01 00:00:00


[geo-torrent.biz]_t_5706456.torrent
Torrent: Registered ·  [ 2019-05-04 22:09 ] ·  6e7df4b6304f5057c5c370a6d820b8d8aedc2f95

12 KB

Status: checked
Completed: 0 times
Size: 259 MB
Rating: 
(Votes: 0)
Say thanks: 0  Thanks
Похожие темы
[Profile]    [PM]
Display posts from previous:    
Reply to topic

The time now is: Today 07:31

All times are GMT + 7 Hours



You cannot post new topics in this forum
You cannot reply to topics in this forum
You cannot edit your posts in this forum
You cannot delete your posts in this forum
You cannot vote in polls in this forum
You cannot attach files in this forum
You can download files in this forum