[GEO] (Pop-Rock / Pop) [CD] Mgzavrebi - Iasamani - 2016, FLAC (image+.cue), lossless

Reply to topic
DL-List and Torrent activity [Update пиров]
Size:  437 MB   |    Registered:  6 months 8 days   |    Completed:  0 times

Seeder not seen: Never

 
   
 
 
 
Author Message

Мых

Post 09-May-2019 22:39

[Quote]

Mgzavrebi / Iasamani
Жанр: Pop-Rock / Pop
Носитель: CD
Страна-производитель диска (релиза): Россия
Год издания: 2016
Издатель (лейбл): Снегири-музыка / Mgzavrebi
Номер по каталогу: СНГ 062-2
Страна исполнителя (группы): Грузия
Аудиокодек: FLAC (*.flac)
Тип рипа: image+.cue
Продолжительность: 00:51:03
Источник: собственный рип
Наличие сканов в содержимом раздачи: да
Треклист:
01. იასამანი | Iasamani (3:40)
02. ფანდური | Fanduri (3:10)
03. ზურგჩანთა | Zurgchanta (3:31)
04. გზაზე | Gzaze (3:08)
05. დომინო | Domino (3:55)
06. რელადო | Relado (3:49)
07. Только ты (3:05)
08. პირამიდები | Piramidebi (3:36)
09. იავნანა | Iavnana (3:23)
10. ვაზი | Vazi (3:50)
11. გალა | Gala (4:20)
12. გამოდი | Gamodi (3:24)
13. სანამგულებს | Sanamgulebs (3:59)
14. Пообещай (4:12)

Лог создания рипа

Exact Audio Copy V1.0 beta 3 from 29. August 2011
EAC extraction logfile from 5. May 2019, 17:06
Mgzavrebi / Iasamani
Used drive : Optiarc DVD RW AD-5240S Adapter: 2 ID: 0
Read mode : Paranoid
Read offset correction : 48Overread into Lead-In and Lead-Out : NoFill up missing offset samples with silence : YesDelete leading and trailing silent blocks : NoNull samples used in CRC calculations : YesUsed interface : Native Win32 interface for Win NT & 2000
Used output format : User Defined EncoderSelected bitrate : 128 kBit/sQuality : HighAdd ID3 tag : NoCommand line compressor : C:\Program Files (x86)\Exact Audio Copy\Flac\flac.exeAdditional command line options : -V -8 -T "Genre=%genre%" -T "Artist=%artist%" -T "Title=%title%" -T "Album=%albumtitle%" -T "Date=%year%" -T "Tracknumber=%tracknr%" -T "Comment=%comment%" %source%
TOC of the extracted CD
Track | Start | Length | Start sector | End sector --------------------------------------------------------- 1 | 0:00.00 | 3:40.26 | 0 | 16525 2 | 3:40.26 | 3:10.20 | 16526 | 30795 3 | 6:50.46 | 3:31.19 | 30796 | 46639 4 | 10:21.65 | 3:08.02 | 46640 | 60741 5 | 13:29.67 | 3:54.19 | 60742 | 78310 6 | 17:24.11 | 3:49.46 | 78311 | 95531 7 | 21:13.57 | 3:04.36 | 95532 | 109367 8 | 24:18.18 | 3:36.24 | 109368 | 125591 9 | 27:54.42 | 3:23.19 | 125592 | 140835 10 | 31:17.61 | 3:49.38 | 140836 | 158048 11 | 35:07.24 | 4:20.35 | 158049 | 177583 12 | 39:27.59 | 3:23.37 | 177584 | 192845 13 | 42:51.21 | 3:59.20 | 192846 | 210790 14 | 46:50.41 | 4:12.25 | 210791 | 229715
Range status and errors
Selected range
Filename D:\Mgzavrebi (Мгзавреби) - Iasamani (СНГ 062-2) (2016)\Mgzavrebi (Мгзавреби) - Iasamani (СНГ 062-2) (2016).wav
Suspicious position 0:00:01 Suspicious position 0:00:17 Suspicious position 0:00:36 Suspicious position 0:01:22 Suspicious position 0:02:20 Suspicious position 0:02:54 Suspicious position 0:02:58 Suspicious position 0:04:09 Suspicious position 0:04:14 Suspicious position 0:04:31 Suspicious position 0:05:05 Suspicious position 0:05:32 Suspicious position 0:06:12 Suspicious position 0:07:26 Suspicious position 0:09:27 Suspicious position 0:09:48 Suspicious position 0:15:35 Suspicious position 0:21:31 Suspicious position 0:22:36 Suspicious position 0:23:07 Suspicious position 0:23:45 Suspicious position 0:23:52 Suspicious position 0:24:08 - 0:24:09 Suspicious position 0:24:56 Suspicious position 0:25:16 Suspicious position 0:26:20 Suspicious position 0:26:29 Suspicious position 0:27:33 Suspicious position 0:32:19 Suspicious position 0:32:43 Suspicious position 0:34:21 Suspicious position 0:34:51 Suspicious position 0:34:55 Suspicious position 0:35:32 Suspicious position 0:36:13 Suspicious position 0:37:52 Suspicious position 0:38:00 Suspicious position 0:38:58 Suspicious position 0:39:09 Suspicious position 0:40:21 Suspicious position 0:43:04 Suspicious position 0:46:00 Suspicious position 0:46:10 Suspicious position 0:47:57 Suspicious position 0:49:04 Suspicious position 0:50:00 Suspicious position 0:50:10 Suspicious position 0:50:13 Suspicious position 0:50:48
Peak level 100.0 % Extraction speed 2.2 X Range quality 72.3 % Test CRC 950A1B82 Copy CRC 7BC984E5 Copy finished
There were errors
AccurateRip summary
Track 1 not present in databaseTrack 2 not present in databaseTrack 3 not present in databaseTrack 4 not present in databaseTrack 5 not present in databaseTrack 6 not present in databaseTrack 7 not present in databaseTrack 8 not present in databaseTrack 9 not present in databaseTrack 10 not present in databaseTrack 11 not present in databaseTrack 12 not present in databaseTrack 13 not present in databaseTrack 14 not present in database
None of the tracks are present in the AccurateRip database
End of status report
==== Log checksum FCE16F2CE52051192EC0A70C08FE24F1CDA13ADD23ECE5357F2CC97D62D5D71B ====

Содержание индексной карты (.CUE)

REM GENRE PopREM DATE 2016REM DISCID B40BF60EREM COMMENT "ExactAudioCopy v1.0b3"PERFORMER "Mgzavrebi"TITLE "Iasamani"FILE "Mgzavrebi (Мгзавреби) - Iasamani (СНГ 062-2) (2016).flac" WAVE TRACK 01 AUDIO TITLE "Iasamani" PERFORMER "Mgzavrebi" INDEX 01 00:00:00 TRACK 02 AUDIO TITLE "Fanduri" PERFORMER "Mgzavrebi" INDEX 01 03:40:26 TRACK 03 AUDIO TITLE "Zurgchanta" PERFORMER "Mgzavrebi" INDEX 01 06:50:46 TRACK 04 AUDIO TITLE "Gzaze" PERFORMER "Mgzavrebi" INDEX 01 10:21:65 TRACK 05 AUDIO TITLE "Domino" PERFORMER "Mgzavrebi" INDEX 01 13:29:67 TRACK 06 AUDIO TITLE "Relado" PERFORMER "Mgzavrebi" INDEX 01 17:24:11 TRACK 07 AUDIO TITLE "Только ты" PERFORMER "Mgzavrebi" INDEX 01 21:13:57 TRACK 08 AUDIO TITLE "Piramidebi" PERFORMER "Mgzavrebi" INDEX 01 24:18:18 TRACK 09 AUDIO TITLE "Iavnana" PERFORMER "Mgzavrebi" INDEX 01 27:54:42 TRACK 10 AUDIO TITLE "Vazi" PERFORMER "Mgzavrebi" INDEX 01 31:17:61 TRACK 11 AUDIO TITLE "Gala" PERFORMER "Mgzavrebi" INDEX 01 35:07:24 TRACK 12 AUDIO TITLE "Gamodi" PERFORMER "Mgzavrebi" INDEX 01 39:27:59 TRACK 13 AUDIO TITLE "Sanamgulebs" PERFORMER "Mgzavrebi" INDEX 01 42:51:21 TRACK 14 AUDIO TITLE "Пообещай" PERFORMER "Mgzavrebi" INDEX 01 46:50:41

Лог проверки качества

AUDIOCHECKER v2.0 beta (build 457) - by Dester - opdester@freemail.hu~~~~~~~~~~~~~~~~~~~~~~~~~~~~~~~~~~-=== DO NOT EDIT THIS FILE! ===-
Path: ...\Mgzavrebi (Мгзавреби) - Iasamani (СНГ 062-2) (2016)
1 -=- Mgzavrebi (Мгзавреби) - Iasamani (СНГ 062-2) (2016).flac -=- CDDA (100%)
40297108

Об исполнителе (группе)

Группа Мгзавреби («Mgzavrebi» - переводится на русский язык как «Путники») родом из Тбилиси, и на сегодняшний день это один из самых популярных музыкальных коллективов в Грузии. Группа была основана в 2006 году, выпустила три полноценных альбома, став широко известной не только на Родине, но и за ее пределами. За это время коллектив, возглавляемый композитором и вокалистом Гиги Дедаламазишвили, сотрудничал с всемирно известными музыкантами: Пласидо Доминго, Андреа Бочелли, Нино Катамадзе, а также знаменитым музыкальным проектом «Buena Vista Social Club»
Мгзавреби только начинают свое восхождение в Москве, в то время как в родной Грузии они собирают стадионы и выступают на главных площадях страны. Знакомство группы с Россией началось в прошлом году, когда известный писатель Евгений Гришковец пригласил их для записи альбома «Ждать Жить Ждать», выпущенного лейблом «Снегири», впервые после расставания с коллективом Бигуди.
Евгений Гришковец: «Таксисты, услышав «Мгзавреби» по радио, делают погромче, – рассказывает о группе Евгений Гришковец, – А вообще «Мгзавреби» в Грузии любят так, как когда-то, почти двадцать лет назад, у нас любили Илью Лагутенко и группу «Мумий Тролль». Гиги Дедаламазишвили и остальные Мгзавреби такого же возраста, как и Илья с «Троллями», когда начинали. Мгзавреби на сегодняшний день редчайший случай группы людей, знакомых со школы. Это не какой-то продюсерский или искусственный «проект», а настоящая Группа в том самом понимании творческого коллектива, какое было когда-то. На сегодняшний день – это просто чудо».

Об альбоме (сборнике)

Iasamani - пятый альбом группы.

Состав

Гиги Дедаламазишвили - вокал, гитара
Лаша Дохнадзе - вокал, перкуссия
Миша Мегрелишвили - речитатив, перкуссия
Дато Гогелия - бас-гитара, вокал
Бежо Амиранашвили - гитара, пандури, вокал
Гуга Кублашвили - флейта, пандури, вокал
Дато Угрехелидзе - клавиши


[geo-torrent.biz]_t_5728126.torrent
Torrent: Registered ·  [ 2019-05-09 22:37 ] ·  9665db280a40e25aeff4453f47375f8d30d1a946

5 KB

Status: checked
Completed: 0 times
Size: 437 MB
Rating: 
(Votes: 0)
Say thanks: 0  Thanks
Похожие темы
[Profile]    [PM]
Display posts from previous:    
Reply to topic

The time now is: Today 08:14

All times are GMT + 7 Hours



You cannot post new topics in this forum
You cannot reply to topics in this forum
You cannot edit your posts in this forum
You cannot delete your posts in this forum
You cannot vote in polls in this forum
You cannot attach files in this forum
You can download files in this forum