(Electronic) [CD] Александр Рябцев - Между прошлым и будущим / Ностальгия - 2008, FLAC (image+.cue), lossless

Reply to topic
DL-List and Torrent activity [Update пиров]
Size:  852 MB   |    Registered:  4 months 14 days   |    Completed:  0 times

Seeder not seen: Never

 
   
 
 
 
Author Message

Пушистый

Post 31-May-2019 14:27

[Quote]

Александр Рябцев - Между прошлым и будущим / Ностальгия (2CD)

Жанр: Electronic
Носитель: CD
Страна-производитель дисков: Россия
Год издания: 2008
Издатель (лейбл): Стиль Рекордс
Номера по каталогу: СР-125-01, СР-126-01
Страна исполнителя: Россия
Аудиокодек: FLAC (*.flac)
Тип рипа: image+.cue
Битрейт аудио: lossless
Продолжительность: 02:17:04
Источник: Собственная коллекция
Наличие сканов в содержимом раздачи: да

Между прошлым и будущим (01:08:17)

Треклист
01. Между прошлым и будущим [04:44]
02. Листопад [03:58]
03. Скажи своё имя [04:00]
04. Полнолуние [05:54]
05. Осенняя печаль [03:25]
06. В гармонии [03:28]
07. Вне тропы [04:40]
08. Детство [04:40]
09. На гребне волны [04:01]
10. Уходящее лето [04:38]
11. Загадай желание [04:43]
12. Лотос [04:04]
13. Таинство рождения [05:00]
14. Соприкосновение [06:02]
15. Тоска по дому [04:53]

Лог EAC

Exact Audio Copy V1.0 beta 4 from 7. December 2014
Отчёт EAC об извлечении, выполненном 28. марта 2015, 15:56
Александр Рябцев / Между прошлым и будущим
Дисковод: MATSHITADVD-RAM UJ8C0 Adapter: 1 ID: 0
Режим чтения : ДостоверностьИспользование точного потока : ДаОтключение кэша аудио : ДаИспользование указателей C2 : Нет
Коррекция смещения при чтении : 103Способность читать области Lead-in и Lead-out : НетЗаполнение пропущенных сэмплов тишиной : ДаУдаление блоков с тишиной в начале и конце : НетПри вычислениях CRC использовались нулевые сэмплы : ДаИнтерфейс : Встроенный Win32-интерфейс для Win NT/2000
Выходной формат : Пользовательский кодировщикВыбранный битрейт : 128 kBit/sКачество : ВысокийДобавление ID3-тега : НетУтилита сжатия : C:\Program Files (x86)\Exact Audio Copy\Flac\flac.exeДополнительные параметры : -V -8 -T "Date=%year%" -T "Genre=%genre%" %source%
TOC извлечённого CD
Трек | Старт | Длительность | Начальный сектор | Конечный сектор --------------------------------------------------------------------- 1 | 0:00.00 | 4:44.74 | 0 | 21373 2 | 4:44.74 | 3:58.49 | 21374 | 39272 3 | 8:43.48 | 4:00.07 | 39273 | 57279 4 | 12:43.55 | 5:54.48 | 57280 | 83877 5 | 18:38.28 | 3:25.53 | 83878 | 99305 6 | 22:04.06 | 3:28.04 | 99306 | 114909 7 | 25:32.10 | 4:40.69 | 114910 | 135978 8 | 30:13.04 | 4:40.06 | 135979 | 156984 9 | 34:53.10 | 4:01.16 | 156985 | 175075 10 | 38:54.26 | 4:38.34 | 175076 | 195959 11 | 43:32.60 | 4:43.56 | 195960 | 217240 12 | 48:16.41 | 4:04.52 | 217241 | 235592 13 | 52:21.18 | 5:00.06 | 235593 | 258098 14 | 57:21.24 | 6:02.38 | 258099 | 285286 15 | 63:23.62 | 4:53.53 | 285287 | 307314
Характеристики диапазона извлечения и сообщения об ошибках
Выбранный диапазон
Имя файла J:\Трэкер\Александр Рябцев\Между прошлым и будущим\Александр Рябцев - Между прошлым и будущим.wav
Пиковый уровень 100.0 % Скорость извлечения 4.2 X Качество диапазона 99.9 % CRC теста 71FE2B3A CRC копии 71FE2B3A Копирование... OK
Ошибок не произошло
AccurateRip: сводка
Трек 1 отсутствует в базе данныхТрек 2 отсутствует в базе данныхТрек 3 отсутствует в базе данныхТрек 4 отсутствует в базе данныхТрек 5 отсутствует в базе данныхТрек 6 отсутствует в базе данныхТрек 7 отсутствует в базе данныхТрек 8 отсутствует в базе данныхТрек 9 отсутствует в базе данныхТрек 10 отсутствует в базе данныхТрек 11 отсутствует в базе данныхТрек 12 отсутствует в базе данныхТрек 13 отсутствует в базе данныхТрек 14 отсутствует в базе данныхТрек 15 отсутствует в базе данных
Ни одного трека нет в базе AccurateRip
Конец отчёта
==== Контрольная сумма отчёта 1FF88834D204090DF9CE792667F39965231511AF174193F01D812692B3B88BED ====

Содержание индексной карты (.CUE)

REM GENRE ElectronicREM DATE 2008REM DISCID CB10010FREM COMMENT "ExactAudioCopy v1.0b4"PERFORMER "Александр Рябцев"TITLE "Между прошлым и будущим"FILE "Александр Рябцев - Между прошлым и будущим.flac" WAVE TRACK 01 AUDIO TITLE "Между прошлым и будущим" PERFORMER "Александр Рябцев" FLAGS DCP INDEX 01 00:00:00 TRACK 02 AUDIO TITLE "Листопад" PERFORMER "Александр Рябцев" FLAGS DCP INDEX 01 04:44:74 TRACK 03 AUDIO TITLE "Скажи своё имя" PERFORMER "Александр Рябцев" FLAGS DCP INDEX 01 08:43:48 TRACK 04 AUDIO TITLE "Полнолуние" PERFORMER "Александр Рябцев" FLAGS DCP INDEX 01 12:43:55 TRACK 05 AUDIO TITLE "Осенняя печаль" PERFORMER "Александр Рябцев" FLAGS DCP INDEX 01 18:38:28 TRACK 06 AUDIO TITLE "В гармонии" PERFORMER "Александр Рябцев" FLAGS DCP INDEX 01 22:04:06 TRACK 07 AUDIO TITLE "Вне тропы" PERFORMER "Александр Рябцев" FLAGS DCP INDEX 01 25:32:10 TRACK 08 AUDIO TITLE "Детство" PERFORMER "Александр Рябцев" FLAGS DCP INDEX 01 30:13:04 TRACK 09 AUDIO TITLE "На гребне волны" PERFORMER "Александр Рябцев" FLAGS DCP INDEX 01 34:53:10 TRACK 10 AUDIO TITLE "Уходящее лето" PERFORMER "Александр Рябцев" FLAGS DCP INDEX 01 38:54:26 TRACK 11 AUDIO TITLE "Загадай желание" PERFORMER "Александр Рябцев" FLAGS DCP INDEX 01 43:32:60 TRACK 12 AUDIO TITLE "Лотос" PERFORMER "Александр Рябцев" FLAGS DCP INDEX 01 48:16:41 TRACK 13 AUDIO TITLE "Таинство рождения" PERFORMER "Александр Рябцев" FLAGS DCP INDEX 01 52:21:18 TRACK 14 AUDIO TITLE "Соприкосновение" PERFORMER "Александр Рябцев" FLAGS DCP INDEX 01 57:21:24 TRACK 15 AUDIO TITLE "Тоска по дому" PERFORMER "Александр Рябцев" FLAGS DCP INDEX 01 63:23:62

Лог auCDtect Task Manager

-----------------------
DON'T MODIFY THIS FILE
-----------------------
PERFORMER: auCDtect Task Manager, ver. 1.6.0 RC1 build 1.6.0.1Copyright (c) 2008-2010 y-soft. All rights reservedhttp://y-soft.org
ANALYZER: auCDtect: CD records authenticity detector, version 0.8.2Copyright (c) 2004 Oleg Berngardt. All rights reserved.Copyright (c) 2004 Alexander Djourik. All rights reserved.
FILE: Александр Рябцев - Между прошлым и будущим.flac Size: 440010302 Hash: CD641D703A1F5507A1FA109B3BC6E47F Accuracy: -m0 Conclusion: CDDA 99% Signature: DD4B67EA560C8F751A5052B356DFA586A5FBCD35

Ностальгия (01:08:47)

Треклист
01. Расставание [04:30]
02. На одном дыхании [03:44]
03. Осень [03:38]
04. Влюблённая во флейту [04:48]
05. Маме [04:19]
06. Загадки Востока [03:25]
07. Безысходность [06:04]
08. Диалог [04:52]
09. Елене [04:36]
10. Преображение [03:11]
11. XVII век [03:21]
12. Рождество [04:11]
13. Дыхание пустыни [04:11]
14. Тропою как слезою [05:24]
15. Авиете [08:27]

Лог EAC

Exact Audio Copy V1.0 beta 4 from 7. December 2014
Отчёт EAC об извлечении, выполненном 28. марта 2015, 16:35
Александр Рябцев / Ностальгия
Дисковод: MATSHITADVD-RAM UJ8C0 Adapter: 1 ID: 0
Режим чтения : ДостоверностьИспользование точного потока : ДаОтключение кэша аудио : ДаИспользование указателей C2 : Нет
Коррекция смещения при чтении : 103Способность читать области Lead-in и Lead-out : НетЗаполнение пропущенных сэмплов тишиной : ДаУдаление блоков с тишиной в начале и конце : НетПри вычислениях CRC использовались нулевые сэмплы : ДаИнтерфейс : Встроенный Win32-интерфейс для Win NT/2000
Выходной формат : Пользовательский кодировщикВыбранный битрейт : 128 kBit/sКачество : ВысокийДобавление ID3-тега : НетУтилита сжатия : C:\Program Files (x86)\Exact Audio Copy\Flac\flac.exeДополнительные параметры : -V -8 -T "Date=%year%" -T "Genre=%genre%" %source%
TOC извлечённого CD
Трек | Старт | Длительность | Начальный сектор | Конечный сектор --------------------------------------------------------------------- 1 | 0:00.00 | 4:30.45 | 0 | 20294 2 | 4:30.45 | 3:44.49 | 20295 | 37143 3 | 8:15.19 | 3:38.32 | 37144 | 53525 4 | 11:53.51 | 4:48.41 | 53526 | 75166 5 | 16:42.17 | 4:19.11 | 75167 | 94602 6 | 21:01.28 | 3:25.20 | 94603 | 109997 7 | 24:26.48 | 6:04.41 | 109998 | 137338 8 | 30:31.14 | 4:52.27 | 137339 | 159265 9 | 35:23.41 | 4:36.59 | 159266 | 180024 10 | 40:00.25 | 3:11.12 | 180025 | 194361 11 | 43:11.37 | 3:21.32 | 194362 | 209468 12 | 46:32.69 | 4:11.18 | 209469 | 228311 13 | 50:44.12 | 4:11.30 | 228312 | 247166 14 | 54:55.42 | 5:24.06 | 247167 | 271472 15 | 60:19.48 | 8:27.47 | 271473 | 309544
Характеристики диапазона извлечения и сообщения об ошибках
Выбранный диапазон
Имя файла J:\Трэкер\Александр Рябцев\Ностальгия\Александр Рябцев - Ностальгия.wav
Пиковый уровень 100.0 % Скорость извлечения 4.3 X Качество диапазона 100.0 % CRC теста 3147967F CRC копии 3147967F Копирование... OK
Ошибок не произошло
AccurateRip: сводка
Трек 1 отсутствует в базе данныхТрек 2 отсутствует в базе данныхТрек 3 отсутствует в базе данныхТрек 4 отсутствует в базе данныхТрек 5 отсутствует в базе данныхТрек 6 отсутствует в базе данныхТрек 7 отсутствует в базе данныхТрек 8 отсутствует в базе данныхТрек 9 отсутствует в базе данныхТрек 10 отсутствует в базе данныхТрек 11 отсутствует в базе данныхТрек 12 отсутствует в базе данныхТрек 13 отсутствует в базе данныхТрек 14 отсутствует в базе данныхТрек 15 отсутствует в базе данных
Ни одного трека нет в базе AccurateRip
Конец отчёта
==== Контрольная сумма отчёта 2FA8A327EC0834D4C520FCF2B1EB4DD8CA9EB55021D9FAB4A91EA52593CFBC8D ====

Содержание индексной карты (.CUE)

REM GENRE ElectronicREM DATE 2008REM DISCID CA101F0FREM COMMENT "ExactAudioCopy v1.0b4"PERFORMER "Александр Рябцев"TITLE "Ностальгия"FILE "Александр Рябцев - Ностальгия.flac" WAVE TRACK 01 AUDIO TITLE "Расставание" PERFORMER "Александр Рябцев" FLAGS DCP INDEX 01 00:00:00 TRACK 02 AUDIO TITLE "На одном дыхании" PERFORMER "Александр Рябцев" FLAGS DCP INDEX 01 04:30:45 TRACK 03 AUDIO TITLE "Осень" PERFORMER "Александр Рябцев" FLAGS DCP INDEX 01 08:15:19 TRACK 04 AUDIO TITLE "Влюблённая во флейту" PERFORMER "Александр Рябцев" FLAGS DCP INDEX 01 11:53:51 TRACK 05 AUDIO TITLE "Маме" PERFORMER "Александр Рябцев" FLAGS DCP INDEX 01 16:42:17 TRACK 06 AUDIO TITLE "Загадки Востока" PERFORMER "Александр Рябцев" FLAGS DCP INDEX 01 21:01:28 TRACK 07 AUDIO TITLE "Безысходность" PERFORMER "Александр Рябцев" FLAGS DCP INDEX 01 24:26:48 TRACK 08 AUDIO TITLE "Диалог" PERFORMER "Александр Рябцев" FLAGS DCP INDEX 01 30:31:14 TRACK 09 AUDIO TITLE "Елене" PERFORMER "Александр Рябцев" FLAGS DCP INDEX 01 35:23:41 TRACK 10 AUDIO TITLE "Преображение" PERFORMER "Александр Рябцев" FLAGS DCP INDEX 01 40:00:25 TRACK 11 AUDIO TITLE "XVII век" PERFORMER "Александр Рябцев" FLAGS DCP INDEX 01 43:11:37 TRACK 12 AUDIO TITLE "Рождество" PERFORMER "Александр Рябцев" FLAGS DCP INDEX 01 46:32:69 TRACK 13 AUDIO TITLE "Дыхание пустыни" PERFORMER "Александр Рябцев" FLAGS DCP INDEX 01 50:44:12 TRACK 14 AUDIO TITLE "Тропою как слезою" PERFORMER "Александр Рябцев" FLAGS DCP INDEX 01 54:55:42 TRACK 15 AUDIO TITLE "Авиете" PERFORMER "Александр Рябцев" FLAGS DCP INDEX 01 60:19:48

Лог auCDtect Task Manager

-----------------------
DON'T MODIFY THIS FILE
-----------------------
PERFORMER: auCDtect Task Manager, ver. 1.6.0 RC1 build 1.6.0.1Copyright (c) 2008-2010 y-soft. All rights reservedhttp://y-soft.org
ANALYZER: auCDtect: CD records authenticity detector, version 0.8.2Copyright (c) 2004 Oleg Berngardt. All rights reserved.Copyright (c) 2004 Alexander Djourik. All rights reserved.
FILE: Александр Рябцев - Ностальгия.flac Size: 439198724 Hash: 4ED81EF40221C7CE56C9C527682DCADB Accuracy: -m0 Conclusion: CDDA 100% Signature: 56CB4042787FCA592F4628B215B5B8F6857127E0

Об исполнителе

Александр Иванович Рябцев родился 12 марта 1963 г. в семье военнослужащего. Окончил радиотехнический факультет Новороссийского высшего инженерного морского училища. Начинал работать на судах загранплавания Новороссийского морского пароходства начальником радиостанции. В 1998 г. заочно окончил судоводительский факультет Новороссийской государственной морской академии и закончил карьеру в должности старшего помощника.
Собственную музыку начал сочинять в 90-х. На сегодняшний день имеет 92 зарегистрированных в РАО композиции и ещё около 150 произведений пока не обнародованы.
Официальный сайт: http://www.raimusic.ru/biography/

О дисках

Альбом "Между прошлым и будущим" является переизданием альбома "Europe. Vol. 12. Space Theme" 2007 г., альбом "Ностальгия" - переизданием альбома "Europe. Vol. 13. Fantasy" 2007 г.
Изменены не только названия альбомов, но также оформление и порядок композиций. Названия композиций в переизданиях теперь написаны не по-английски, а по-русски.
Ещё два альбома Александра Рябцева: http:///forum/viewtopic.php?t=3959300
Хочу напомнить, что вся выкладываемая мной музыка предназначена для предварительного ознакомления с творчеством того или иного исполнителя.
Если музыка вам понравилась, то после ознакомления рекомендуется приобрести официальные релизы.
Все права на музыку принадлежат уважаемым авторам и правообладателям.


[geo-torrent.biz]_t_4972594.torrent
Torrent: Registered ·  [ 2019-05-31 14:27 ] ·  237fe4441e125a6b7e3a14ca7a0d861f1a9909bf

19 KB

Status: checked
Completed: 0 times
Size: 852 MB
Rating: 
(Votes: 0)
Say thanks: 0  Thanks
Похожие темы
[Profile]    [PM]
Display posts from previous:    
Reply to topic

The time now is: Today 17:55

All times are GMT + 7 Hours



You cannot post new topics in this forum
You cannot reply to topics in this forum
You cannot edit your posts in this forum
You cannot delete your posts in this forum
You cannot vote in polls in this forum
You cannot attach files in this forum
You can download files in this forum