На серебряной планете / Na srebrnym globie / On the Silver Globe (Анджей Жулавски / Andrzej Zulawski) [1988, Польша, фантастика, фэнтези, приключения, BDRip] AVO (Карповский) + Original Pol + Sub Rus, Eng

Reply to topic
DL-List and Torrent activity [Update пиров]
Size:  2.63 GB   |    Registered:  1 month 15 days   |    Completed:  0 times

Seeder not seen: Never

 
   
 
 
 
Author Message

Мых

Post 30-Aug-2019 10:00

[Quote]

На серебряной планете / Na srebrnym globie / On the Silver Globe
Страна: Польша
Студия: Zespól Filmowy Kadr
Жанр: фантастика, фэнтези, приключения
Год выхода: 1988
Продолжительность: 02:45:18
Перевод: Авторский (одноголосый закадровый) Антон Карповский
Субтитры: русские, английские
Оригинальная аудиодорожка: Польский
Режиссер: Анджей Жулавски / Andrzej Zulawski
В ролях: Анджей Северин, Ежи Треля, Гражина Дилонг, Вальдемар Ковнацкий, Ивона Бельска, Ежи Гралек, Эльжбета Каркошка, Кристина Янда, Мацей Гурай, Хенрик Таляр, Лешек Длугош, Ян Фрыч, Хенрик Биста, Веслав Комаса, Роман Франкл, Януш Зербст, Ежи Роговский, Анджей Пречигс
Описание: Экранизация «Лунной трилогии» Ежи Жулавского. Во время экспедиции на Луну в результате аварии выжило только трое астронавтов - Марта, Пётр и Ежи. Между мужчинами разгорается ожесточённое соперничество за право дать начало новому человеческому роду. Через несколько десятков лет Ежи перед смертью посылает свой видеодневник на Землю в надежде на обратную связь, но новая экспедиция прилетела на Луну лишь через 700 лет...
Дополнительная информация:
Автор релиза -
Заказ перевода у Антона Карповского (август 2018 - июль 2019) - ylnian
За сборку дороги спасибо rammzez
Источник для рипа - Blu-Ray (JPN) - On.the.Silver.Globe.1988.1080p.JPN.Blu-ray.AVC.TrueHD.5.1-CrsS
Рекламы нет!

Сэмпл: http://multi-up.com/1238172
Качество видео: BDRip
Формат файла: AVI
Видео: XviD, 720x432 (5:3), 24 fps, 1500 kbps, 0.201 bit/pixel
Аудио 1: Русский AC3, 48000 Гц, 6ch, 384 kbps
Аудио 2: Польский AC3, 48000 Гц, 6ch, 384 kbps - внешняя
Формат файла субтитров: softsub (SRT) - внешние

MediaInfo

ОбщееПолное имя : E:\Na.srebrnym.globie.1988.BDRip-ylnian\Na.srebrnym.globie.1988.BDRip-ylnian.aviФормат файла : AVIФормат файла/Информация : Audio Video InterleaveПрофиль формата : OpenDMLРазмер файла : 2,18 ГбайтПродолжительность : 2 ч. 44 м.Общий поток : 1895 Кбит/секПрограмма кодирования : VirtualDubMod 1.5.10.3 | www.virtualdub-fr.org || (build 2550/release)Библиотека кодирования : VirtualDubMod build 2550/release
ВидеоИдентификатор : 0Формат файла : MPEG-4 VisualПрофиль формата : Advanced Simple@L5Настройки формата : BVOP1 / Custom MatrixПараметр BVOP формата : 1Параметр QPel формата : НетПараметр GMC формата : Без точки переходаПараметр матрицы формата : ВыборочнаяИдентификатор кодека : XVIDИдентификатор кодека/Подсказка : XviDПродолжительность : 2 ч. 44 м.Битрейт : 1500 Кбит/секШирина : 720 пикселейВысота : 432 пикселяСоотношение сторон : 5:3Частота кадров : 24,000 кадра/секЦветовое пространство : YUVСубдискретизация насыщенности : 4:2:0Битовая глубина : 8 битТип развёртки : ПрогрессивнаяМетод сжатия : С потерямиБит/(Пиксели*Кадры) : 0.201Размер потока : 1,73 Гбайт (79%)Библиотека кодирования : XviD 67
АудиоИдентификатор : 1Формат файла : AC-3Формат файла/Информация : Audio Coding 3Коммерческое название : Dolby DigitalИдентификатор кодека : 2000Продолжительность : 2 ч. 44 м.Вид битрейта : ПостоянныйБитрейт : 384 Кбит/секКаналы : 6 каналовChannel layout : L R C LFE Ls RsЧастота : 48,0 КГцЧастота кадров : 31,250 кадров/сек (1536 SPF)Битовая глубина : 16 битМетод сжатия : С потерямиРазмер потока : 453 Мбайт (20%)Выравнивание : Разделение по промежуткамПродолжительность промежутка : 42 мс. (1,00 видеокадр)Время предзагрузки промежутка : 500 мс.Заголовок : RUS - AVO - KarpovskyServiceKind/String : Complete Main
ОбщееПолное имя : E:\Na.srebrnym.globie.1988.BDRip-ylnian\Na.srebrnym.globie.1988.BDRip-ylnian.pol.ac3Формат файла : AC-3Формат файла/Информация : Audio Coding 3Коммерческое название : Dolby DigitalРазмер файла : 455 МбайтПродолжительность : 2 ч. 45 м.Режим общего битрейта : ПостоянныйОбщий поток : 384 Кбит/сек
АудиоФормат файла : AC-3Формат файла/Информация : Audio Coding 3Коммерческое название : Dolby DigitalПродолжительность : 2 ч. 45 м.Вид битрейта : ПостоянныйБитрейт : 384 Кбит/секКаналы : 6 каналовChannel layout : L R C LFE Ls RsЧастота : 48,0 КГцЧастота кадров : 31,250 кадров/сек (1536 SPF)Битовая глубина : 16 битМетод сжатия : С потерямиРазмер потока : 455 Мбайт (100%)ServiceKind/String : Complete Main
ОбщееПолное имя : E:\Na.srebrnym.globie.1988.BDRip-ylnian\Na.srebrnym.globie.1988.BDRip-ylnian.rus.srtФормат файла : SubRipРазмер файла : 149 Кбайт
ТекстФормат файла : SubRipМетод сжатия : Без потерь
ОбщееПолное имя : E:\Na.srebrnym.globie.1988.BDRip-ylnian\Na.srebrnym.globie.1988.BDRip-ylnian_eng.srtРазмер файла : 107 Кбайт

Источник: none

Источник: none с DVDRip-ом
DVDRip --->>> BDRip
--->>>
--->>>
--->>>


[geo-torrent.biz]_t_5762581.torrent
Torrent: Registered ·  [ 2019-08-30 10:00 ] ·  23717ec6e7c80feecfe4fde3f772e6131d08c357

14 KB

Status: checked
Completed: 0 times
Size: 2.63 GB
Rating: 
(Votes: 0)
Say thanks: 0  Thanks
Похожие темы
[Profile]    [PM]
Display posts from previous:    
Reply to topic

The time now is: Today 17:17

All times are GMT + 7 Hours



You cannot post new topics in this forum
You cannot reply to topics in this forum
You cannot edit your posts in this forum
You cannot delete your posts in this forum
You cannot vote in polls in this forum
You cannot attach files in this forum
You can download files in this forum