Служанка / The Handmaiden / Agasshi / Ah-ga-ssi (Пак Чхан-ук / Park Chan-wook) [2016, Южная Корея, мелодрама, детектив, триллер, HDRip] [Расширенная версия | Extended Edition] AVO (Юрий Сербин) + Sub Eng + Original Kor

Reply to topic
DL-List and Torrent activity [Update пиров]
Size:  2.71 GB   |    Registered:  1 month 3 days   |    Completed:  0 times

Seeder not seen: Never

 
   
 
 
 
Author Message

Мых

Post 10-Sep-2019 21:04

[Quote]

Служанка / The Handmaiden / Agasshi / Ah-ga-ssi
Расширенная версия / Extended Edition
Страна: Южная Корея
Жанр: мелодрама, детектив, триллер
Год выхода: 2016
Продолжительность: 02:47:33
Перевод: Авторский (одноголосый закадровый) - Юрий Сербин
Субтитры: английские
Оригинальная аудиодорожка: корейский

Режиссер: Пак Чхан-ук / Park Chan-wook
В ролях: Ким Мин-хи, Ким Тхэ-ри, Ха Джон-у, Чо Джин-ун, Ким Хэ-сук, Мун Со-ри, Ли Ён-нё, Ли Дон-хви, Ю Мин-чхэ, Чо Ын-хён, Хан Ха-на, Ли Гю-джон, Ким Щи-ын, Ким Ын-ён, Чон Ха-дам
Описание: 30-е годы прошлого столетия. Корея, оккупированная японцами. Мошенник по прозвищу Граф предлагает бедной девушке Сук-хи поучаствовать в деле, обещая солидный заработок. План афериста следующий. В огромном поместье, не общаясь с внешним миром, живет богатая японка Хидэко. Однако ее дядя, контролирующий каждый шаг девушки, изредка устраивает приемы для местных аристократов. Граф рассчитывает очаровать Хидэко, сбежать с ней в Японию, жениться, объявить ее сумасшедшей, упечь в дурдом и завладеть всем богатством. А Сук-хи должна ему помочь, нанявшись в услужение к Хидэко. Что она и сделала. Но внезапно идеальный замысел Графа оказывается под угрозой.
Сэмпл
Качество видео: HDRip
Формат файла: AVI
Видео: 720x304 (2.37:1), 23.976 fps, XviD build 73 ~1411 kbps avg, 0.27 bit/pixel
Аудио: 48 kHz, AC3 Dolby Digital, 3/2 (L,C,R,l,r) + LFE ch, ~448 kbps - авторский
Аудио: 48 kHz, AC3 Dolby Digital, 3/2 (L,C,R,l,r) + LFE ch, ~448 kbps - оригинал (отдельным файлом)
Формат файла субтитров: softsub (SRT)

MediaInfo

ОбщееПолное имя : H:\Ah-ga-ssi.2016.Extended Cut.bdrip_[2.18]_[teko]\Ah-ga-ssi.2016.Extended Cut.bdrip_[2.18].aviФормат файла : AVIФормат файла/Информация : Audio Video InterleaveПрофиль формата : OpenDMLРазмер файла : 2,18 ГбайтПродолжительность : 2 ч. 47 м.Общий поток : 1867 Кбит/секПрограмма кодирования : VirtualDubMod 1.5.10.3 | www.virtualdub-fr.org || (build 2550/release)Библиотека кодирования : VirtualDubMod build 2550/release
ВидеоИдентификатор : 0Формат файла : MPEG-4 VisualПрофиль формата : Advanced Simple@L5Параметр BVOP формата : 2Параметр QPel формата : НетПараметр GMC формата : Без точки переходаПараметр матрицы формата : ВыборочнаяИдентификатор кодека : XVIDИдентификатор кодека/Подсказка : XviDПродолжительность : 2 ч. 47 м.Битрейт : 1407 Кбит/секШирина : 720 пикселейВысота : 304 пикселяСоотношение сторон : 2,35:1Частота кадров : 23,976 кадра/секЦветовое пространство : YUVСубдискретизация насыщенности : 4:2:0Битовая глубина : 8 битТип развёртки : ПрогрессивнаяМетод сжатия : С потерямиБит/(Пиксели*Кадры) : 0.268Размер потока : 1,65 Гбайт (75%)Библиотека кодирования : XviD 73
АудиоИдентификатор : 1Формат файла : AC-3Формат файла/Информация : Audio Coding 3Расширение режима : CM (complete main)Параметр Endianness формата : BigИдентификатор кодека : 2000Продолжительность : 2 ч. 47 м.Вид битрейта : ПостоянныйБитрейт : 448 Кбит/секКаналы : 6 каналовРасположение каналов : Front: L C R, Side: L R, LFEЧастота : 48,0 КГцБитовая глубина : 16 битМетод сжатия : С потерямиРазмер потока : 537 Мбайт (24%)Выравнивание : Разделение по промежуткамПродолжительность промежутка : 42 мс. (1,00 видеокадр)Время предзагрузки промежутка : 500 мс.

Скриншоты

:--


[geo-torrent.biz]_t_5766992.torrent
Torrent: Registered ·  [ 2019-09-10 21:04 ] ·  6ebaf7a879ffe241fe7af7bc11cbc945ac283507

14 KB

Status: checked
Completed: 0 times
Size: 2.71 GB
Rating: 
(Votes: 0)
Say thanks: 0  Thanks
Похожие темы
[Profile]    [PM]
Display posts from previous:    
Reply to topic

The time now is: Today 18:00

All times are GMT + 7 Hours



You cannot post new topics in this forum
You cannot reply to topics in this forum
You cannot edit your posts in this forum
You cannot delete your posts in this forum
You cannot vote in polls in this forum
You cannot attach files in this forum
You can download files in this forum