Танец смерти / Пляска смерти / Dance Macabre / Phantom of the Opera / House of Pain (Грейдон Кларк / Greydon Clark) [1992, США, Россия, Ужасы, триллер, DVDRip] AVO (Александра Марченко) + Original Eng

Reply to topic
DL-List and Torrent activity [Update пиров]
Size:  1.47 GB   |    Registered:  1 month 18 days   |    Completed:  0 times

Seeder not seen: Never

 
   
 
 
 
Author Message

Кейт

Post 08-Dec-2019 13:52

[Quote]

Танец смерти / Пляска смерти / Dance Macabre / Phantom of the Opera / House of Pain
Страна: США, Россия
Жанр: Ужасы, триллер
Год выхода: 1992
Продолжительность: 01:36:32
Перевод: Авторский (одноголосый закадровый) Александра Марченко
Субтитры: нет
Оригинальная аудиодорожка: английский
Режиссер: Грейдон Кларк / Greydon Clark
В ролях: Роберт Инглунд / Robert Englund, Мишель Цейтлин / Michelle Zeitlin, Марианна Моэн / Marianna Moen и др
Описание: Некий хореограф привозит свою труппу в Россию на стажировку. Для репетиций, которые им крайне необходимы, они используют маленький заброшенный театрик в Санкт-Петербурге.
Однако члены его труппы не подозревают об одном немаловажном обстоятельстве: их маэстро Энтони Вейгер страдает раздвоением личности. И его скрываемая личность — серийный убийца… С одной стороны он признается, что «страдающие люди подчас совершают поступки, которые никто в мире не может понять», но когда прима-балерина даёт резкий отпор его любовным притязаниям, он начинает нападать на членов своей собственной труппы.
Он на некоторое время приостанавливает свою преступную деятельность, но только для романа с Джессикой, девушкой из маленького городка, чей богатый папаша хочет, чтобы его дочка стала балериной. Однако когда она тоже отказывает ему, Вагнер даже ещё глубже погружается в пучины извращенного криминального безумия.
Доп. информация:
Сэмпл: http://yadi.sk/i/r4TWIjWquyec8g
Качество видео: DVDRip
Формат файла: AVI
Видео: 704x384 (1.83:1), 23.976 fps, XviD build 73 ~1777 kbps avg, 0.27 bit/pixel
Аудио: 48 kHz, AC3 Dolby Digital, 2/0 (L,R) ch, ~192 kbps
Аудио 2: 48 kHz, AC3 Dolby Digital, 2/0 (L,R) ch, ~192 kbps

MediaInfo

Танец смерти Dance Macabre (by Edich2).aviFormat : AVIFormat/Info : Audio Video InterleaveFile size : 1.47 GiBDuration : 1 h 36 minOverall bit rate : 2 176 kb/sMovie name : Танец смерти Dance Macabre (by Edich2)Director : by Edich2Writing application : VirtualDubMod 1.5.10.2 (build 2540/release)Comment :
VideoID : 0Format : MPEG-4 VisualFormat profile : Advanced Simple@L5Format settings : BVOP1 / Custom MatrixFormat settings, BVOP : 1Format settings, QPel : NoFormat settings, GMC : No warppointsFormat settings, Matrix : CustomCodec ID : XVIDCodec ID/Hint : XviDDuration : 1 h 36 minBit rate : 1 778 kb/sWidth : 704 pixelsHeight : 384 pixelsDisplay aspect ratio : 1.85:1Frame rate : 23.976 (24000/1001) FPSColor space : YUVChroma subsampling : 4:2:0Bit depth : 8 bitsScan type : ProgressiveCompression mode : LossyBits/(Pixel*Frame) : 0.274Stream size : 1.20 GiB (82%)Writing library : XviD 73
Audio #1ID : 1Format : AC-3Format/Info : Audio Coding 3Codec ID : 2000Duration : 1 h 36 minBit rate mode : ConstantBit rate : 192 kb/sChannel(s) : 2 channelsChannel positions : Front: L RSampling rate : 48.0 kHzFrame rate : 31.250 FPS (1536 SPF)Bit depth : 16 bitsCompression mode : LossyStream size : 133 MiB (9%)Alignment : Split accross interleavesInterleave, duration : 42 ms (1.00 video frame)Interleave, preload duratio : 500 msService kind : Complete Main
Audio #2ID : 2Format : AC-3Format/Info : Audio Coding 3Codec ID : 2000Duration : 1 h 36 minBit rate mode : ConstantBit rate : 192 kb/sChannel(s) : 2 channelsChannel positions : Front: L RSampling rate : 48.0 kHzFrame rate : 31.250 FPS (1536 SPF)Bit depth : 16 bitsCompression mode : LossyStream size : 133 MiB (9%)Alignment : Split accross interleavesInterleave, duration : 42 ms (1.00 video frame)Interleave, preload duratio : 500 msService kind : Complete Main

Скриншоты




[geo-torrent.biz]_t_5816939.torrent
Torrent: Registered ·  [ 2019-12-08 13:52 ] ·  1f675b31cd88c99a465eab70d2f5597a69358c1b

15 KB

Status: checked
Completed: 0 times
Size: 1.47 GB
Rating: 
(Votes: 0)
Say thanks: 0  Thanks
Похожие темы
[Profile]    [PM]
Display posts from previous:    
Reply to topic

The time now is: Today 07:31

All times are GMT + 7 Hours



You cannot post new topics in this forum
You cannot reply to topics in this forum
You cannot edit your posts in this forum
You cannot delete your posts in this forum
You cannot vote in polls in this forum
You cannot attach files in this forum
You can download files in this forum