(Jazz) [CD] Djabe - Forward Live - 2018 (2 CD), FLAC (tracks+.cue), lossless

Reply to topic
DL-List and Torrent activity [Update пиров]
Size:  885 MB   |    Registered:  2 months 20 days   |    Completed:  0 times

Seeder not seen: Never

 
   
 
 
 
Author Message

КЭП

Post 14-Jan-2020 22:17

[Quote]


Forward Live


Жанр: Jazz
Носитель: CD
Страна-производитель диска (релиза): Hungary
Год издания: 2018
Издатель (лейбл): Gramy
Номер по каталогу: GR1993
Страна исполнителя (группы): Hungary
Аудиокодек: FLAC (*.flac)
Тип рипа: tracks+.cue
Продолжительность: 02:04:46
Источник: Nafta Music
Наличие сканов в содержимом раздачи: да
Корректность рипа: В оригинале не было применено сжатие при конвертировании во Флак (FLAC Level 0). Для приведения в соответствие правилам пережато во FLAC Level 5 с сохранением тэгов

CD 1 (01:06:32)

ТRACKLIST:
01 - Sheafs Are Dancing (00:03:31)
02 - Kilinama (00:03:55)
03 - Street Scene Of Hajdúböszörmény (00:08:16)
04 - Take A Deep Breath (00:07:49)
05 - Forward (00:08:57)
06 - Hang Out (00:08:37)
07 - New Words (00:10:25)
08 - Lava Lamp (00:06:44)
09 - Life Spirit (00:08:18)

Лог создания рипа

Exact Audio Copy V1.3 from 2. September 2016
EAC extraction logfile from 11. January 2020, 10:08
Djabe / Forward Live
Used drive : PLEXTOR DVDR PX-L890SA Adapter: 1 ID: 0
Read mode : SecureUtilize accurate stream : YesDefeat audio cache : YesMake use of C2 pointers : No
Read offset correction : 6Overread into Lead-In and Lead-Out : NoFill up missing offset samples with silence : YesDelete leading and trailing silent blocks : NoNull samples used in CRC calculations : YesUsed interface : Native Win32 interface for Win NT & 2000Gap handling : Appended to previous track
Used output format : User Defined EncoderSelected bitrate : 1024 kBit/sQuality : HighAdd ID3 tag : NoCommand line compressor : C:\Program Files\Exact Audio Copy\Flac\flac.exeAdditional command line options : -0 -V -T "ARTIST=%artist%" -T "TITLE=%title%" -T "ALBUM=%albumtitle%" -T "DATE=%year%" -T "TRACKNUMBER=%tracknr%" -T "TOTALTRACKS=%numtracks%" -T "GENRE=%genre%" -T "COMMENT=Naftamusic Release!" %source%
TOC of the extracted CD
Track | Start | Length | Start sector | End sector --------------------------------------------------------- 1 | 0:00.00 | 3:30.65 | 0 | 15814 2 | 3:30.65 | 3:55.10 | 15815 | 33449 3 | 7:26.00 | 8:16.00 | 33450 | 70649 4 | 15:42.00 | 7:48.65 | 70650 | 105814 5 | 23:30.65 | 8:57.20 | 105815 | 146109 6 | 32:28.10 | 8:36.65 | 146110 | 184874 7 | 41:05.00 | 10:25.00 | 184875 | 231749 8 | 51:30.00 | 6:43.50 | 231750 | 262024 9 | 58:13.50 | 8:18.25 | 262025 | 299399
Track 1
Filename E:\Nafta Releases\Djabe - Forward Live (2018) [FLAC] - Naftamusic\CD 1\01 - Sheafs Are Dancing.wav
Pre-gap length 0:00:02.00
Peak level 100.0 % Extraction speed 3.2 X Track quality 100.0 % Test CRC F69CBB4F Copy CRC F69CBB4F Track not present in AccurateRip database Copy OK
Track 2
Filename E:\Nafta Releases\Djabe - Forward Live (2018) [FLAC] - Naftamusic\CD 1\02 - Kilinama.wav
Peak level 100.0 % Extraction speed 3.7 X Track quality 100.0 % Test CRC 72233B11 Copy CRC 72233B11 Track not present in AccurateRip database Copy OK
Track 3
Filename E:\Nafta Releases\Djabe - Forward Live (2018) [FLAC] - Naftamusic\CD 1\03 - Street Scene Of Hajdúböszörmény.wav
Peak level 100.0 % Extraction speed 4.0 X Track quality 99.9 % Test CRC B7FC6EF0 Copy CRC B7FC6EF0 Track not present in AccurateRip database Copy OK
Track 4
Filename E:\Nafta Releases\Djabe - Forward Live (2018) [FLAC] - Naftamusic\CD 1\04 - Take A Deep Breath.wav
Peak level 100.0 % Extraction speed 5.1 X Track quality 100.0 % Test CRC BB514E34 Copy CRC BB514E34 Track not present in AccurateRip database Copy OK
Track 5
Filename E:\Nafta Releases\Djabe - Forward Live (2018) [FLAC] - Naftamusic\CD 1\05 - Forward.wav
Peak level 100.0 % Extraction speed 5.7 X Track quality 100.0 % Test CRC 50C8D76C Copy CRC 50C8D76C Track not present in AccurateRip database Copy OK
Track 6
Filename E:\Nafta Releases\Djabe - Forward Live (2018) [FLAC] - Naftamusic\CD 1\06 - Hang Out.wav
Peak level 100.0 % Extraction speed 6.1 X Track quality 100.0 % Test CRC 6D380DB4 Copy CRC 6D380DB4 Track not present in AccurateRip database Copy OK
Track 7
Filename E:\Nafta Releases\Djabe - Forward Live (2018) [FLAC] - Naftamusic\CD 1\07 - New Words.wav
Peak level 100.0 % Extraction speed 6.7 X Track quality 100.0 % Test CRC 98DC6802 Copy CRC 98DC6802 Track not present in AccurateRip database Copy OK
Track 8
Filename E:\Nafta Releases\Djabe - Forward Live (2018) [FLAC] - Naftamusic\CD 1\08 - Lava Lamp.wav
Peak level 100.0 % Extraction speed 6.9 X Track quality 100.0 % Test CRC BC2B686C Copy CRC BC2B686C Track not present in AccurateRip database Copy OK
Track 9
Filename E:\Nafta Releases\Djabe - Forward Live (2018) [FLAC] - Naftamusic\CD 1\09 - Life Spirit.wav
Peak level 100.0 % Extraction speed 6.6 X Track quality 99.9 % Test CRC 989AFE00 Copy CRC 989AFE00 Track not present in AccurateRip database Copy OK
None of the tracks are present in the AccurateRip database
No errors occurred
End of status report
==== Log checksum AC24DB4A1483CC0641DC1550D8B2EE58123C45E83F6D42DE62E8522BC40EAB02 ====

Содержание индексной карты (.CUE)

REM GENRE "jjazz fusion"REM DATE 2018REM DISCID 750F9809REM COMMENT "ExactAudioCopy v1.3"FILE "01 - Sheafs Are Dancing.wav" WAVE TRACK 01 AUDIO INDEX 01 00:00:00FILE "02 - Kilinama.wav" WAVE TRACK 02 AUDIO INDEX 01 00:00:00FILE "03 - Street Scene Of Hajdúböszörmény.wav" WAVE TRACK 03 AUDIO INDEX 01 00:00:00FILE "04 - Take A Deep Breath.wav" WAVE TRACK 04 AUDIO INDEX 01 00:00:00FILE "05 - Forward.wav" WAVE TRACK 05 AUDIO INDEX 01 00:00:00FILE "06 - Hang Out.wav" WAVE TRACK 06 AUDIO INDEX 01 00:00:00FILE "07 - New Words.wav" WAVE TRACK 07 AUDIO INDEX 01 00:00:00FILE "08 - Lava Lamp.wav" WAVE TRACK 08 AUDIO INDEX 01 00:00:00FILE "09 - Life Spirit.wav" WAVE TRACK 09 AUDIO INDEX 01 00:00:00

CD 2 (00:58:14)

ТRACKLIST:
01 - Mr. East (00:07:29)
02 - Wind Tale (00:05:56)
03 - Flying - Instrumental (00:01:33)
04 - Iceworld (00:10:58)
05 - Twin Pines (00:06:48)
06 - My Day (00:08:20)
07 - Hortobágy At Winter (00:01:50)
08 - Clouds Dance (00:02:49)
09 - First Step (00:01:42)
10 - Dark Soup (00:02:27)
11 - Butterfly (00:01:42)
12 - House On The Hill (00:06:40)

Лог создания рипа

Exact Audio Copy V1.3 from 2. September 2016
EAC extraction logfile from 11. January 2020, 10:37
Djabe / Forward Live
Used drive : PLEXTOR DVDR PX-L890SA Adapter: 1 ID: 0
Read mode : SecureUtilize accurate stream : YesDefeat audio cache : YesMake use of C2 pointers : No
Read offset correction : 6Overread into Lead-In and Lead-Out : NoFill up missing offset samples with silence : YesDelete leading and trailing silent blocks : NoNull samples used in CRC calculations : YesUsed interface : Native Win32 interface for Win NT & 2000Gap handling : Appended to previous track
Used output format : User Defined EncoderSelected bitrate : 1024 kBit/sQuality : HighAdd ID3 tag : NoCommand line compressor : C:\Program Files\Exact Audio Copy\Flac\flac.exeAdditional command line options : -0 -V -T "ARTIST=%artist%" -T "TITLE=%title%" -T "ALBUM=%albumtitle%" -T "DATE=%year%" -T "TRACKNUMBER=%tracknr%" -T "TOTALTRACKS=%numtracks%" -T "GENRE=%genre%" -T "COMMENT=Naftamusic Release!" %source%
TOC of the extracted CD
Track | Start | Length | Start sector | End sector --------------------------------------------------------- 1 | 0:00.00 | 7:29.00 | 0 | 33674 2 | 7:29.00 | 5:56.00 | 33675 | 60374 3 | 13:25.00 | 1:33.00 | 60375 | 67349 4 | 14:58.00 | 10:58.00 | 67350 | 116699 5 | 25:56.00 | 6:48.00 | 116700 | 147299 6 | 32:44.00 | 8:20.00 | 147300 | 184799 7 | 41:04.00 | 1:49.70 | 184800 | 193044 8 | 42:53.70 | 2:49.05 | 193045 | 205724 9 | 45:43.00 | 1:41.74 | 205725 | 213373 10 | 47:24.74 | 2:27.16 | 213374 | 224414 11 | 49:52.15 | 1:41.41 | 224415 | 232030 12 | 51:33.56 | 6:40.19 | 232031 | 262049
Track 1
Filename E:\Nafta Releases\Djabe - Forward Live (2018) [FLAC] - Naftamusic\CD 2\01 - Mr. East.wav
Pre-gap length 0:00:02.00
Peak level 100.0 % Extraction speed 3.8 X Track quality 100.0 % Test CRC 78DB6B7E Copy CRC 78DB6B7E Track not present in AccurateRip database Copy OK
Track 2
Filename E:\Nafta Releases\Djabe - Forward Live (2018) [FLAC] - Naftamusic\CD 2\02 - Wind Tale.wav
Peak level 100.0 % Extraction speed 4.4 X Track quality 100.0 % Test CRC B670D905 Copy CRC B670D905 Track not present in AccurateRip database Copy OK
Track 3
Filename E:\Nafta Releases\Djabe - Forward Live (2018) [FLAC] - Naftamusic\CD 2\03 - Flying - Instrumental.wav
Peak level 70.0 % Extraction speed 3.6 X Track quality 100.0 % Test CRC 3FBB2BFB Copy CRC 3FBB2BFB Track not present in AccurateRip database Copy OK
Track 4
Filename E:\Nafta Releases\Djabe - Forward Live (2018) [FLAC] - Naftamusic\CD 2\04 - Iceworld.wav
Peak level 100.0 % Extraction speed 4.9 X Track quality 99.9 % Test CRC 6EF5A75E Copy CRC 6EF5A75E Track not present in AccurateRip database Copy OK
Track 5
Filename E:\Nafta Releases\Djabe - Forward Live (2018) [FLAC] - Naftamusic\CD 2\05 - Twin Pines.wav
Peak level 100.0 % Extraction speed 5.0 X Track quality 99.9 % Test CRC AAF0E34B Copy CRC AAF0E34B Track not present in AccurateRip database Copy OK
Track 6
Filename E:\Nafta Releases\Djabe - Forward Live (2018) [FLAC] - Naftamusic\CD 2\06 - My Day.wav
Peak level 100.0 % Extraction speed 5.6 X Track quality 99.9 % Test CRC 619365D6 Copy CRC 619365D6 Track not present in AccurateRip database Copy OK
Track 7
Filename E:\Nafta Releases\Djabe - Forward Live (2018) [FLAC] - Naftamusic\CD 2\07 - Hortobágy At Winter.wav
Peak level 100.0 % Extraction speed 5.3 X Track quality 100.0 % Test CRC 08EDB51F Copy CRC 08EDB51F Track not present in AccurateRip database Copy OK
Track 8
Filename E:\Nafta Releases\Djabe - Forward Live (2018) [FLAC] - Naftamusic\CD 2\08 - Clouds Dance.wav
Peak level 100.0 % Extraction speed 5.9 X Track quality 100.0 % Test CRC 7DEA40EF Copy CRC 7DEA40EF Track not present in AccurateRip database Copy OK
Track 9
Filename E:\Nafta Releases\Djabe - Forward Live (2018) [FLAC] - Naftamusic\CD 2\09 - First Step.wav
Peak level 100.0 % Extraction speed 5.2 X Track quality 100.0 % Test CRC 3688AB6A Copy CRC 3688AB6A Track not present in AccurateRip database Copy OK
Track 10
Filename E:\Nafta Releases\Djabe - Forward Live (2018) [FLAC] - Naftamusic\CD 2\10 - Dark Soup.wav
Peak level 100.0 % Extraction speed 5.9 X Track quality 100.0 % Test CRC 7F69D64E Copy CRC 7F69D64E Track not present in AccurateRip database Copy OK
Track 11
Filename E:\Nafta Releases\Djabe - Forward Live (2018) [FLAC] - Naftamusic\CD 2\11 - Butterfly.wav
Peak level 100.0 % Extraction speed 3.7 X Track quality 99.8 % Test CRC 190E2419 Copy CRC 190E2419 Track not present in AccurateRip database Copy OK
Track 12
Filename E:\Nafta Releases\Djabe - Forward Live (2018) [FLAC] - Naftamusic\CD 2\12 - House On The Hill.wav
Peak level 100.0 % Extraction speed 7.2 X Track quality 100.0 % Test CRC EC273C46 Copy CRC EC273C46 Track not present in AccurateRip database Copy OK
None of the tracks are present in the AccurateRip database
No errors occurred
End of status report
==== Log checksum 2E04F90560EC480D067838CBEFD4057F321E07925775C35BFC0F97DD15D045CC ====

Содержание индексной карты (.CUE)

REM GENRE "jazz fusion"REM DATE 2018REM DISCID C10DA60CREM COMMENT "ExactAudioCopy v1.3"FILE "01 - Mr. East.wav" WAVE TRACK 01 AUDIO INDEX 01 00:00:00FILE "02 - Wind Tale.wav" WAVE TRACK 02 AUDIO INDEX 01 00:00:00FILE "03 - Flying - Instrumental.wav" WAVE TRACK 03 AUDIO INDEX 01 00:00:00FILE "04 - Iceworld.wav" WAVE TRACK 04 AUDIO INDEX 01 00:00:00FILE "05 - Twin Pines.wav" WAVE TRACK 05 AUDIO INDEX 01 00:00:00FILE "06 - My Day.wav" WAVE TRACK 06 AUDIO INDEX 01 00:00:00FILE "07 - Hortobágy At Winter.wav" WAVE TRACK 07 AUDIO INDEX 01 00:00:00FILE "08 - Clouds Dance.wav" WAVE TRACK 08 AUDIO INDEX 01 00:00:00FILE "09 - First Step.wav" WAVE TRACK 09 AUDIO INDEX 01 00:00:00FILE "10 - Dark Soup.wav" WAVE TRACK 10 AUDIO INDEX 01 00:00:00FILE "11 - Butterfly.wav" WAVE TRACK 11 AUDIO INDEX 01 00:00:00FILE "12 - House On The Hill.wav" WAVE TRACK 12 AUDIO INDEX 01 00:00:00


[geo-torrent.biz]_t_5834566.torrent
Torrent: Registered ·  [ 2020-01-14 22:17 ] ·  b665d3e1f7124871ef651b88a61f1f655934f418

20 KB

Status: checked
Completed: 0 times
Size: 885 MB
Rating: 
(Votes: 0)
Say thanks: 0  Thanks
Похожие темы
[Profile]    [PM]
Display posts from previous:    
Reply to topic

The time now is: Today 16:41

All times are GMT + 7 Hours



You cannot post new topics in this forum
You cannot reply to topics in this forum
You cannot edit your posts in this forum
You cannot delete your posts in this forum
You cannot vote in polls in this forum
You cannot attach files in this forum
You can download files in this forum