(Vocal Jazz) [CD] Billie Holiday - The Silver Collection - 1984, FLAC (image+.cue), lossless

Reply to topic
DL-List and Torrent activity [Update пиров]
Size:  286 MB   |    Registered:  2 months 18 days   |    Completed:  0 times

Seeder not seen: Never

 
   
 
 
 
Author Message

Кейт

Post 17-Jan-2020 15:17

[Quote]

Billie Holiday / The Silver Collection
Жанр: Vocal Jazz
Носитель: CD
Страна-производитель диска (релиза): USA
Год издания: 1984
Издатель (лейбл): Verve Records
Номер по каталогу: 823 449-2
Страна исполнителя (группы): USA
Аудиокодек: FLAC (*.flac)
Тип рипа: image+.cue
Продолжительность: 01:05:19
Источник: собственный рип
Наличие сканов в содержимом раздачи: да
Треклист:
1. I Wished On The Moon 3:25
Written-By – Dorothy Parker, Ralph Rainger
2. Moonlight In Vermont 3:47
Written-By – John Blackburn, Karl Suessdorf
3. Say It Isn't So 3:15
Written-By – Irving Berlin
4. Our Love Is Here To Stay 3:40
Written-By – George And Ira Gershwin
5. Darn That Dream 6:15
Written-By – Eddie Delange, Jimmy Van Heusen
6. But Not For Me 3:48
Written-By – George And Ira Gershwin
7. Body And Soul 6:18
Written-By – Edward Heyman, Frank Eyton, Johnny Green, Robert Sauer
8. Comes Love 3:57
Written-By – Charles Tobias, Lew Brown, Sammy Stept
9. They Can't Take That Away From Me 4:07
Written-By – George And Ira Gershwin
10. Embraceable You 6:44
Written-By – George And Ira Gershwin
11. Let's Call The Whole Thing Off 3:22
Written-By – George And Ira Gershwin
12. Gee Baby Ain't I Good To You 3:22
Written-By – Andy Razaf, Don Redman
13. All Or Nothing At All
Written-By – Arthur Altman, Frank Lawrence 5:39
14. We'll Be Together Again 4:24
Written-By – Carl Fischer, Frankie Laine

Лог создания рипа

Exact Audio Copy V1.3 from 2. September 2016
Отчёт EAC об извлечении, выполненном 17. января 2020, 11:13
Billie Holiday / The Silver Collection
Дисковод: SONY BD RW BWU-500S Adapter: 1 ID: 0
Режим чтения : ДостоверностьИспользование точного потока : ДаОтключение кэша аудио : ДаИспользование указателей C2 : Нет
Коррекция смещения при чтении : 6Способность читать области Lead-in и Lead-out : НетЗаполнение пропущенных сэмплов тишиной : ДаУдаление блоков с тишиной в начале и конце : НетПри вычислениях CRC использовались нулевые сэмплы : ДаИнтерфейс : Встроенный Win32-интерфейс для Win NT/2000
Выходной формат : Пользовательский кодировщикВыбранный битрейт : 128 kBit/sКачество : ВысокийДобавление ID3-тега : НетУтилита сжатия : G:\Program Files (x86)\Exact Audio Copy\Flac\flac.exeДополнительные параметры : -V -8 -T "Date=%year%" -T "Genre=%genre%" %source%
TOC извлечённого CD
Трек | Старт | Длительность | Начальный сектор | Конечный сектор --------------------------------------------------------------------- 1 | 0:00.32 | 3:28.60 | 32 | 15691 2 | 3:29.17 | 3:52.35 | 15692 | 33126 3 | 7:21.52 | 3:19.55 | 33127 | 48106 4 | 10:41.32 | 3:44.60 | 48107 | 64966 5 | 14:26.17 | 6:20.00 | 64967 | 93466 6 | 20:46.17 | 3:52.20 | 93467 | 110886 7 | 24:38.37 | 6:23.10 | 110887 | 139621 8 | 31:01.47 | 4:01.60 | 139622 | 157756 9 | 35:03.32 | 4:13.13 | 157757 | 176744 10 | 39:16.45 | 6:49.47 | 176745 | 207466 11 | 46:06.17 | 3:26.28 | 207467 | 222944 12 | 49:32.45 | 5:39.05 | 222945 | 248374 13 | 55:11.50 | 5:43.32 | 248375 | 274131 14 | 60:55.07 | 4:24.50 | 274132 | 293981
Характеристики диапазона извлечения и сообщения об ошибках
Выбранный диапазон
Имя файла I:\Billie Holiday - The Silver Collection (1984) (Verve Records - 823 449-2) [FLAC] CD\Billie Holiday - The Silver Collection.wav
Пиковый уровень 93.3 % Скорость извлечения 3.5 X Качество диапазона 99.9 % CRC теста 414E2500 CRC копии 414E2500 Копирование... OK
Ошибок не произошло
AccurateRip: сводка
Трек 1 : извлечено точно (доверие 4) [E491FFA7] (AR v2)Трек 2 : извлечено точно (доверие 4) [AECCBA16] (AR v2)Трек 3 : извлечено точно (доверие 4) [8A13357E] (AR v2)Трек 4 : извлечено точно (доверие 4) [5F9E91DC] (AR v2)Трек 5 : извлечено точно (доверие 4) [478D05D6] (AR v2)Трек 6 : извлечено точно (доверие 4) [317BD295] (AR v2)Трек 7 : извлечено точно (доверие 4) [D32A11AD] (AR v2)Трек 8 : извлечено точно (доверие 3) [D8284D3E] (AR v2)Трек 9 : извлечено точно (доверие 3) [824DFA08] (AR v2)Трек 10 : извлечено точно (доверие 3) [E4A8CEA1] (AR v2)Трек 11 : извлечено точно (доверие 4) [C3141225] (AR v2)Трек 12 : извлечено точно (доверие 4) [30F57BEE] (AR v2)Трек 13 : извлечено точно (доверие 4) [8EF03167] (AR v2)Трек 14 : извлечено точно (доверие 3) [BB54B353] (AR v2)
Все треки извлечены точно
Конец отчёта
==== Контрольная сумма отчёта 5887360C844EC2BCDEA3BE7C7AB4843E7FDA2B47E855653F891311FA8BA5279C ====

Содержание индексной карты (.CUE)

REM GENRE JazzREM DATE 1984REM DISCID C80F4F0EREM COMMENT "ExactAudioCopy v1.3"PERFORMER "Billie Holiday"TITLE "The Silver Collection"REM COMPOSER ""FILE "Billie Holiday - The Silver Collection.flac" WAVE TRACK 01 AUDIO TITLE "I Wished on the Moon" PERFORMER "Billie Holiday" REM COMPOSER "" INDEX 00 00:00:00 INDEX 01 00:00:32 TRACK 02 AUDIO TITLE "Moonlight in Vermont" PERFORMER "Billie Holiday" REM COMPOSER "" INDEX 00 03:27:17 INDEX 01 03:29:17 TRACK 03 AUDIO TITLE "Say It Isn't So" PERFORMER "Billie Holiday" REM COMPOSER "" INDEX 00 07:18:52 INDEX 01 07:21:52 TRACK 04 AUDIO TITLE "Our Love Is Here to Stay" PERFORMER "Billie Holiday" REM COMPOSER "" INDEX 00 10:38:32 INDEX 01 10:41:32 TRACK 05 AUDIO TITLE "Darn That Dream" PERFORMER "Billie Holiday" REM COMPOSER "" INDEX 00 14:23:17 INDEX 01 14:26:17 TRACK 06 AUDIO TITLE "But Not for Me" PERFORMER "Billie Holiday" REM COMPOSER "" INDEX 00 20:43:17 INDEX 01 20:46:17 TRACK 07 AUDIO TITLE "Body and Soul" PERFORMER "Billie Holiday" REM COMPOSER "" INDEX 00 24:35:37 INDEX 01 24:38:37 TRACK 08 AUDIO TITLE "Comes Love" PERFORMER "Billie Holiday" REM COMPOSER "" INDEX 00 30:58:47 INDEX 01 31:01:47 TRACK 09 AUDIO TITLE "They Can't Take That Away From Me" PERFORMER "Billie Holiday" REM COMPOSER "" INDEX 00 35:00:32 INDEX 01 35:03:32 TRACK 10 AUDIO TITLE "Embraceable You" PERFORMER "Billie Holiday" REM COMPOSER "" INDEX 00 39:13:45 INDEX 01 39:16:45 TRACK 11 AUDIO TITLE "Let's Call the Whole Thing Off" PERFORMER "Billie Holiday" REM COMPOSER "" INDEX 00 46:03:17 INDEX 01 46:06:17 TRACK 12 AUDIO TITLE "Gee Baby Ain't I Good to You" PERFORMER "Billie Holiday" REM COMPOSER "" INDEX 00 49:29:45 INDEX 01 49:32:45 TRACK 13 AUDIO TITLE "All or Nothing at All" PERFORMER "Billie Holiday" REM COMPOSER "" INDEX 00 55:08:50 INDEX 01 55:11:50 TRACK 14 AUDIO TITLE "We'll Be Together Again" PERFORMER "Billie Holiday" REM COMPOSER "" INDEX 00 60:52:07 INDEX 01 60:55:07

Об альбоме (сборнике)

Tracks 1 to 7: Recorded January 3, 4, and 7, 1957, Los Angeles
Track 8: Recorded January 8, 1957, Los Angeles
Tracks 9 to 12: Recorded January 9, 1957, Los Angeles
Tracks 12 and 13: Recorded August 18, 1956, Los Angeles
All selections previously released on V-8197 and V-8329
Digitally remastered at Polygram Studios

Состав

Bass – Joe Mondragon (tracks: 8, 13, 14), Red Mitchell (tracks: 1 to 7, 9 to 12)
Design – Tom Hughes
Drums – Alvin Stoller (tracks: 1 to 7), Larry Bunker (tracks: 8 to 14)
Engineer – Val Valentin
Guitar – Barney Kessel
Piano – Jimmy Rowles
Producer – Norman Granz
Reissue Producer – Ed Levine, Richard Seidel
Remastered By – Dennis Drake
Tenor Saxophone – Ben Webster
Trumpet – Harry "Sweets" Edison*


[geo-torrent.biz]_t_5833162.torrent
Torrent: Registered ·  [ 2020-01-17 15:17 ] ·  b687807f8d4f9201f05506d4de5df768c319e9a3

12 KB

Status: checked
Completed: 0 times
Size: 286 MB
Rating: 
(Votes: 0)
Say thanks: 0  Thanks
Похожие темы
[Profile]    [PM]
Display posts from previous:    
Reply to topic

The time now is: Today 16:31

All times are GMT + 7 Hours



You cannot post new topics in this forum
You cannot reply to topics in this forum
You cannot edit your posts in this forum
You cannot delete your posts in this forum
You cannot vote in polls in this forum
You cannot attach files in this forum
You can download files in this forum