Бумажки / Сезон: Серии: 1-31 из ? (Вадим Воля, Евгений Головин) [2015, Мультсериал, детский, семейный, приключения, SATRip, rus] (обучающий)

Reply to topic
DL-List and Torrent activity [Update пиров]
Size:  2.28 GB   |    Registered:  1 year 2 months   |    Completed:  0 times

Seeder not seen: Never

 
   
 
 
 
Author Message

Генри

Post 05-Oct-2018 22:03

[Quote]

Бумажки
Страна: Россия, Паровоз
Жанр: Мультсериал, детский, семейный, приключения
Продолжительность: 31 x ~ 00:05:30
Год выхода: 2015
Русские субтитры: нет
Режиссёр: Вадим Воля, Евгений Головин
Описание: Новый обучающий анимационный сериал для детей, рассказывающий о приключениях бумажных героев в мире, который тоже целиком состоит из бумаги. Мультфильм учит детей доброте и в нём есть практичные вставки, где показано как сделать из бумаги и клея персонажей сериала. Задумка авторов состоит в том, чтобы помочь творческому и умственному развитию малышей.

Список серий

01. Заяц или Кот
02. С днём рождения, птенчики!
03. Игрушка для Зюйд-Веста
04. Букет для королевы
05. Под крышей дома
06. Королева хочет домой
07. На высоте
08. Пикник в обеденное время
09. Лучший изобретатель
10. Пришелец с Фольгундии
11. Полезное насекомое
12. Новый сосед
13. Живые цветы
14. Снова праздник!
15. Подвиг капитана Тюка
16. Знакомый незнакомец
17. За бумажным морем
18. Приходите на концерт!
19. Звёздная ночь
20. Розовая клумба
21. Крокодиловы слёзы
22. Удачный кадр
23. Радужное озеро
24. Птица удачи
25. Загадочное письмо
26. Бумажный концерт
27. Бумажное солнце
28. Дом с привидениями
29. Перевёрнутая история
30. Серенький волчок
31. Сокровища бумажной пещеры
Качество: SATRip
Формат файла: AVI
Видео: Xvid 720x400 25fps 1 700 Kbps
Аудио: AC3 48000Hz stereo 192kbps
Субтитры: отсутствуют

Подробные технические данные

D:\Бумажки\01. Заяц или Кот.avi General Complete name : D:\Бумажки\01. Заяц или Кот.avi Format : AVI Format/Info : Audio Video Interleave File size : 74.8 MiB Duration : 5mn 29s Overall bit rate : 1 902 Kbps Director : SATRip by Thunder Writing application : VirtualDubMod 1.5.10.3 | www.virtualdub-fr.org || (build 2550/release) Original source form/Name : Cartoon Video #0 ID : 0 Format : MPEG-4 Visual Format profile : Advanced Simple@L5 Format settings, BVOP : Yes Format settings, QPel : No Format settings, GMC : No warppoints Format settings, Matrix : Default (H.263) Codec ID : XVID Codec ID/Hint : XviD Duration : 5mn 29s Bit rate : 1 700 Kbps Width : 720 pixels Height : 400 pixels Display aspect ratio : 16:9 Frame rate : 25.000 fps Color space : YUV Chroma subsampling : 4:2:0 Bit depth : 8 bits Scan type : Progressive Bits/(Pixel*Frame) : 0.236 Stream size : 66.8 MiB (89%) Writing library : XviD 1.2.1 (UTC 2008-12-04) Audio #1 ID : 1 Format : AC-3 Format/Info : Audio Coding 3 Mode extension : CM (complete main) Codec ID : 2000 Duration : 5mn 29s Bit rate mode : Constant Bit rate : 192 Kbps Channel(s) : 2 channels Channel positions : Front: L R Sampling rate : 48.0 KHz Bit depth : 16 bits Stream size : 7.55 MiB (10%) Alignment : Split accross interleaves Interleave, duration : 40 ms (1.00 video frame) Interleave, preload duration : 500 ms

Скриншоты






[geo-torrent.biz]_t_5034894.torrent
Torrent: Registered ·  [ 2018-10-05 22:02 ] ·  c9491bba7e0a534414412f9504f35d9db05ebbed

10 KB

Status: checked
Completed: 0 times
Size: 2.28 GB
Rating: 
(Votes: 0)
Say thanks: 0  Thanks
Похожие темы
[Profile]    [PM]
Display posts from previous:    
Reply to topic

The time now is: Today 16:52

All times are GMT + 7 Hours



You cannot post new topics in this forum
You cannot reply to topics in this forum
You cannot edit your posts in this forum
You cannot delete your posts in this forum
You cannot vote in polls in this forum
You cannot attach files in this forum
You can download files in this forum