Аркадий Паровозов спешит на помощь / Серии 1-60 из ? (Евгений Головин) [2012-2014, Анимация, Детский, WEBRip, rus] (обучающий)

Reply to topic
DL-List and Torrent activity [Update пиров]
Size:  1.2 GB   |    Registered:  1 year 2 months   |    Completed:  0 times

Seeder not seen: Never

 
   
 
 
 
Author Message

Генри

Post 05-Oct-2018 22:03

[Quote]

Аркадий Паровозов спешит на помощь
Страна: Россия
Жанр: Мультсериал, Анимация, Детский
а: Пуз-Карапуз
Продолжительность: 00:02:00
Год выхода: 2012 - 2014
Перевод: Не требуется
Русские субтитры: нет
Режиссёр: Евгений Головин
Автор сценария: Вадим Воля
Роли озвучивали: Вадим Воля — чтение текста, Игорь Войнаровский — исполнение песни
Описание: Новый русский познавательный мультсериал. В каждой двухминутной серии новые поучительные истории о приключениях неутомимых проказников, Маши и Саши. Любая их затея — приготовление пирога, постройка звездолета или лесная прогулка — обычно приводит к непредвиденным последствиям. Как хорошо, что удивительный супергерой Аркадий Паровозов всегда вовремя приходит ребятам на помощь!

Персонажи

Герои. Саша и Маша — любопытные дети, которые любят шалить и устраивать беспорядки. Они как будто притягивают к себе все беды и неприятности. Брат и сестра живут на двенадцатом этаже, учатся средне.
Аркадий Паровозов — спасатель, герой и космонавт; добрый и смелый, веселый и находчивый. Он умеет летать, неплохо играет на баяне, не курит и живет на Луне.

Список серий

01. ПОТОП
02. ГАЗ
03. НЕЗНАКОМЕЦ
04. СПИЧКИ
05. ЛЕС
06. АДРЕС
07. ЛИФТ
08. КАЧЕЛИ
09. ПОДВАЛ
10. ПОХИЩЕНИЕ
11. ГРИБЫ
12. ПЛАВАНЬЕ
13. СОЛНЕЧНЫЙ_УДАР
14. ГРОЗА
15. МИКРОБ
16. ГОРКА
17. ЛЫЖИ
18. ЯЗЫК
19. КАМИН
20. СНЕГОКАТ
21. МЕТРО
22. ЛЕКАРСТВА
23. ПОСТОРОННИЙ
24. ОКНО
25. КЛЮЧИ
26. ШАПКА
27. СОСУЛЬКИ
28. СОБАЧКА
29. ПОРУЧНИ
30. ХУЛИГАНЫ
31. ПЕРЕОХЛАЖДЕНИЕ
32. ТОНУ
33. ТАРЗАНКА
34. РОЗЕТКА
35. ОСЫ
36. ПОЖАР
37. БОЛОТО
38. ЛЕСТНИЦА
39. ГАЛЧОНОК
40. ВОДА
41. РЕМНИ
42. ЛЮК
43. ПРОВОД
44. КОМПЬЮТЕР
45. ДЕРЕВО
46. ПЛАТФОРМА
47. ПЕРЕЕЗД
48. СТРОЙКА
49. ПРОЕЗЖАЯ_ЧАСТЬ
50. СВЕТОФОР
51. ЭСКАЛАТОР
52. ХИМИЯ
53. ЭСЭМЭСКА
54. ФИЛЬМОСКОП
55. РОЛИКИ
56. КАСТРЮЛЯ
57. КЛЕЩИ
58. ИНСТРУМЕНТЫ
59. ЛОДКА
60. БУТЫЛКА

Доп. информация

Что? Занимательные и очень поучительные истории о приключениях неутомимых проказников, Маши и Саши. Любая их затея — приготовление пирога, постройка звездолета или лесная прогулка — обычно приводит к непредвиденным последствиям. Как хорошо, что удивительный Аркадий Паровозов всегда вовремя приходит ребятам на помощь!
Зачем? Оригинальный мультсериал, обучающий основам безопасности жизнедеятельности в стихотворной форме. Основная задача проекта — научить детей быстро и правильно реагировать в случае опасных ситуаций и предотвращать их возникновение.
Мультсериал адресован детям 4-7 лет, однако будет полезен и интересен и более старшему возрасту.
Качество: WEBRip
Формат файла: AVI
Видео: Xvid, 640x480 (4:3), 25,000 fps, ~1100 kbps
Аудио: MP3, 2 канала, MPEG Audio (Version 1)(Layer 3), 44,1 КГц, 128 kbps
Субтитры: отсутствуют

Подробные технические данные

ОбщееПолное имя : D:\Мультфильмы\Аркадий Паровозов\Аркадий Паровозов #01 ПОТОП.aviФормат файла : AVIФормат файла/Информация : Audio Video InterleaveРазмер файла : 17,8 МбайтПродолжительность : 2 м. 0 с.Общий поток : 1245 Кбит/секПрограмма кодирования : VirtualDubMod 1.5.10.3 | www.virtualdub-fr.org || (build 2550/release)Библиотека кодирования : VirtualDubMod build 2550/release
ВидеоИдентификатор : 0Формат файла : MPEG-4 VisualПрофиль формата : Advanced Simple@L5Параметр BVOP формата : 2Параметр QPel формата : НетПараметр GMC формата : Без точки переходаПараметр матрицы формата : Default (H.263)Идентификатор кодека : XVIDИдентификатор кодека/Подсказка : XviDПродолжительность : 2 м. 0 с.Битрейт : 1106 Кбит/секШирина : 640 пикселейВысота : 480 пикселейСоотношение сторон : 4:3Частота кадров : 25,000 кадров/секЦветовое пространство : YUVСубдискретизация насыщенности : 4:2:0Битовая глубина : 8 битТип развёртки : ПрогрессивнаяМетод сжатия : С потерямиБит/(Пиксели*Кадры) : 0.144Размер потока : 15,9 Мбайт (89%)Библиотека кодирования : XviD 1.2.1 (UTC 2008-12-04)
АудиоИдентификатор : 1Формат файла : MPEG AudioВерсия формата : Version 1Профиль формата : Layer 3Идентификатор кодека : 55Идентификатор кодека/Подсказка : MP3Продолжительность : 2 м. 0 с.Вид битрейта : ПостоянныйБитрейт : 128 Кбит/секКаналы : 2 каналаЧастота : 44,1 КГцМетод сжатия : С потерямиРазмер потока : 1,84 Мбайт (10%)Выравнивание : Разделение по промежуткамПродолжительность промежутка : 40 мс. (1,00 видеокадр)Время предзагрузки промежутка : 500 мс.Библиотека кодирования : LAME3.99rНастройки программы : -m s -V 4 -q 2 -lowpass 17 -b 128
ОбщееПолное имя : D:\Мультфильмы\Аркадий Паровозов\Аркадий Паровозов #02 ГАЗ.aviФормат файла : AVIФормат файла/Информация : Audio Video InterleaveРазмер файла : 17,7 МбайтПродолжительность : 1 м. 59 с.Общий поток : 1243 Кбит/секПрограмма кодирования : VirtualDubMod 1.5.10.3 | www.virtualdub-fr.org || (build 2550/release)Библиотека кодирования : VirtualDubMod build 2550/release
ВидеоИдентификатор : 0Формат файла : MPEG-4 VisualПрофиль формата : Advanced Simple@L5Параметр BVOP формата : 2Параметр QPel формата : НетПараметр GMC формата : Без точки переходаПараметр матрицы формата : Default (H.263)Идентификатор кодека : XVIDИдентификатор кодека/Подсказка : XviDПродолжительность : 1 м. 59 с.Битрейт : 1104 Кбит/секШирина : 640 пикселейВысота : 480 пикселейСоотношение сторон : 4:3Частота кадров : 25,000 кадров/секЦветовое пространство : YUVСубдискретизация насыщенности : 4:2:0Битовая глубина : 8 битТип развёртки : ПрогрессивнаяМетод сжатия : С потерямиБит/(Пиксели*Кадры) : 0.144Размер потока : 15,7 Мбайт (89%)Библиотека кодирования : XviD 1.2.1 (UTC 2008-12-04)
АудиоИдентификатор : 1Формат файла : MPEG AudioВерсия формата : Version 1Профиль формата : Layer 3Идентификатор кодека : 55Идентификатор кодека/Подсказка : MP3Продолжительность : 1 м. 59 с.Вид битрейта : ПостоянныйБитрейт : 128 Кбит/секКаналы : 2 каналаЧастота : 44,1 КГцМетод сжатия : С потерямиРазмер потока : 1,82 Мбайт (10%)Выравнивание : Разделение по промежуткамПродолжительность промежутка : 40 мс. (1,00 видеокадр)Время предзагрузки промежутка : 500 мс.Библиотека кодирования : LAME3.99rНастройки программы : -m s -V 4 -q 2 -lowpass 17 -b 128
ОбщееПолное имя : D:\Мультфильмы\Аркадий Паровозов\Аркадий Паровозов #03 НЕЗНАКОМЕЦ.aviФормат файла : AVIФормат файла/Информация : Audio Video InterleaveРазмер файла : 17,6 МбайтПродолжительность : 1 м. 59 с.Общий поток : 1241 Кбит/секПрограмма кодирования : VirtualDubMod 1.5.10.3 | www.virtualdub-fr.org || (build 2550/release)Библиотека кодирования : VirtualDubMod build 2550/release
ВидеоИдентификатор : 0Формат файла : MPEG-4 VisualПрофиль формата : Advanced Simple@L5Параметр BVOP формата : 2Параметр QPel формата : НетПараметр GMC формата : Без точки переходаПараметр матрицы формата : Default (H.263)Идентификатор кодека : XVIDИдентификатор кодека/Подсказка : XviDПродолжительность : 1 м. 59 с.Битрейт : 1102 Кбит/секШирина : 640 пикселейВысота : 480 пикселейСоотношение сторон : 4:3Частота кадров : 25,000 кадров/секЦветовое пространство : YUVСубдискретизация насыщенности : 4:2:0Битовая глубина : 8 битТип развёртки : ПрогрессивнаяМетод сжатия : С потерямиБит/(Пиксели*Кадры) : 0.144Размер потока : 15,7 Мбайт (89%)Библиотека кодирования : XviD 1.2.1 (UTC 2008-12-04)
АудиоИдентификатор : 1Формат файла : MPEG AudioВерсия формата : Version 1Профиль формата : Layer 3Идентификатор кодека : 55Идентификатор кодека/Подсказка : MP3Продолжительность : 1 м. 59 с.Вид битрейта : ПостоянныйБитрейт : 128 Кбит/секКаналы : 2 каналаЧастота : 44,1 КГцМетод сжатия : С потерямиРазмер потока : 1,82 Мбайт (10%)Выравнивание : Разделение по промежуткамПродолжительность промежутка : 40 мс. (1,00 видеокадр)Время предзагрузки промежутка : 500 мс.Библиотека кодирования : LAME3.99rНастройки программы : -m s -V 4 -q 2 -lowpass 17 -b 128
ОбщееПолное имя : D:\Мультфильмы\Аркадий Паровозов\Аркадий Паровозов #55 РОЛИКИ.aviФормат файла : AVIФормат файла/Информация : Audio Video InterleaveРазмер файла : 22,2 МбайтПродолжительность : 2 м. 30 с.Общий поток : 1239 Кбит/секПрограмма кодирования : VirtualDubMod 1.5.10.3 | www.virtualdub-fr.org || (build 2550/release)Библиотека кодирования : VirtualDubMod build 2550/release
ВидеоИдентификатор : 0Формат файла : MPEG-4 VisualПрофиль формата : Advanced Simple@L5Параметр BVOP формата : 2Параметр QPel формата : НетПараметр GMC формата : Без точки переходаПараметр матрицы формата : Default (H.263)Идентификатор кодека : XVIDИдентификатор кодека/Подсказка : XviDПродолжительность : 2 м. 30 с.Битрейт : 1101 Кбит/секШирина : 640 пикселейВысота : 480 пикселейСоотношение сторон : 4:3Частота кадров : 25,000 кадров/секЦветовое пространство : YUVСубдискретизация насыщенности : 4:2:0Битовая глубина : 8 битТип развёртки : ПрогрессивнаяМетод сжатия : С потерямиБит/(Пиксели*Кадры) : 0.143Размер потока : 19,7 Мбайт (89%)Библиотека кодирования : XviD 1.2.1 (UTC 2008-12-04)
АудиоИдентификатор : 1Формат файла : MPEG AudioВерсия формата : Version 1Профиль формата : Layer 3Идентификатор кодека : 55Идентификатор кодека/Подсказка : MP3Продолжительность : 2 м. 30 с.Вид битрейта : ПостоянныйБитрейт : 128 Кбит/секКаналы : 2 каналаЧастота : 44,1 КГцМетод сжатия : С потерямиРазмер потока : 2,29 Мбайт (10%)Выравнивание : Разделение по промежуткамПродолжительность промежутка : 40 мс. (1,00 видеокадр)Время предзагрузки промежутка : 500 мс.Библиотека кодирования : LAME3.99rНастройки программы : -m s -V 4 -q 2 -lowpass 17 -b 128
ОбщееПолное имя : D:\Мультфильмы\Аркадий Паровозов\Аркадий Паровозов #57 КЛЕЩИ.aviФормат файла : AVIФормат файла/Информация : Audio Video InterleaveРазмер файла : 22,2 МбайтПродолжительность : 2 м. 30 с.Общий поток : 1239 Кбит/секПрограмма кодирования : VirtualDubMod 1.5.10.3 | www.virtualdub-fr.org || (build 2550/release)Библиотека кодирования : VirtualDubMod build 2550/release
ВидеоИдентификатор : 0Формат файла : MPEG-4 VisualПрофиль формата : Advanced Simple@L5Параметр BVOP формата : 2Параметр QPel формата : НетПараметр GMC формата : Без точки переходаПараметр матрицы формата : Default (H.263)Идентификатор кодека : XVIDИдентификатор кодека/Подсказка : XviDПродолжительность : 2 м. 30 с.Битрейт : 1101 Кбит/секШирина : 640 пикселейВысота : 480 пикселейСоотношение сторон : 4:3Частота кадров : 25,000 кадров/секЦветовое пространство : YUVСубдискретизация насыщенности : 4:2:0Битовая глубина : 8 битТип развёртки : ПрогрессивнаяМетод сжатия : С потерямиБит/(Пиксели*Кадры) : 0.143Размер потока : 19,7 Мбайт (89%)Библиотека кодирования : XviD 1.2.1 (UTC 2008-12-04)
АудиоИдентификатор : 1Формат файла : MPEG AudioВерсия формата : Version 1Профиль формата : Layer 3Идентификатор кодека : 55Идентификатор кодека/Подсказка : MP3Продолжительность : 2 м. 30 с.Вид битрейта : ПостоянныйБитрейт : 128 Кбит/секКаналы : 2 каналаЧастота : 44,1 КГцМетод сжатия : С потерямиРазмер потока : 2,29 Мбайт (10%)Выравнивание : Разделение по промежуткамПродолжительность промежутка : 40 мс. (1,00 видеокадр)Время предзагрузки промежутка : 500 мс.Библиотека кодирования : LAME3.99rНастройки программы : -m s -V 4 -q 2 -lowpass 17 -b 128
ОбщееПолное имя : D:\Мультфильмы\Аркадий Паровозов\Аркадий Паровозов #58 ИНСТРУМЕНТЫ.aviФормат файла : AVIФормат файла/Информация : Audio Video InterleaveРазмер файла : 22,2 МбайтПродолжительность : 2 м. 30 с.Общий поток : 1240 Кбит/секПрограмма кодирования : VirtualDubMod 1.5.10.3 | www.virtualdub-fr.org || (build 2550/release)Библиотека кодирования : VirtualDubMod build 2550/release
ВидеоИдентификатор : 0Формат файла : MPEG-4 VisualПрофиль формата : Advanced Simple@L5Параметр BVOP формата : 2Параметр QPel формата : НетПараметр GMC формата : Без точки переходаПараметр матрицы формата : Default (H.263)Идентификатор кодека : XVIDИдентификатор кодека/Подсказка : XviDПродолжительность : 2 м. 30 с.Битрейт : 1101 Кбит/секШирина : 640 пикселейВысота : 480 пикселейСоотношение сторон : 4:3Частота кадров : 25,000 кадров/секЦветовое пространство : YUVСубдискретизация насыщенности : 4:2:0Битовая глубина : 8 битТип развёртки : ПрогрессивнаяМетод сжатия : С потерямиБит/(Пиксели*Кадры) : 0.143Размер потока : 19,7 Мбайт (89%)Библиотека кодирования : XviD 1.2.1 (UTC 2008-12-04)
АудиоИдентификатор : 1Формат файла : MPEG AudioВерсия формата : Version 1Профиль формата : Layer 3Идентификатор кодека : 55Идентификатор кодека/Подсказка : MP3Продолжительность : 2 м. 30 с.Вид битрейта : ПостоянныйБитрейт : 128 Кбит/секКаналы : 2 каналаЧастота : 44,1 КГцМетод сжатия : С потерямиРазмер потока : 2,29 Мбайт (10%)Выравнивание : Разделение по промежуткамПродолжительность промежутка : 40 мс. (1,00 видеокадр)Время предзагрузки промежутка : 500 мс.Библиотека кодирования : LAME3.99rНастройки программы : -m s -V 4 -q 2 -lowpass 17 -b 128
ОбщееПолное имя : D:\Мультфильмы\Аркадий Паровозов\Аркадий Паровозов #60 БУТЫЛКА.aviФормат файла : AVIФормат файла/Информация : Audio Video InterleaveРазмер файла : 22,1 МбайтПродолжительность : 2 м. 30 с.Общий поток : 1238 Кбит/секПрограмма кодирования : VirtualDubMod 1.5.10.3 | www.virtualdub-fr.org || (build 2550/release)Библиотека кодирования : VirtualDubMod build 2550/release
ВидеоИдентификатор : 0Формат файла : MPEG-4 VisualПрофиль формата : Advanced Simple@L5Параметр BVOP формата : 2Параметр QPel формата : НетПараметр GMC формата : Без точки переходаПараметр матрицы формата : Default (H.263)Идентификатор кодека : XVIDИдентификатор кодека/Подсказка : XviDПродолжительность : 2 м. 30 с.Битрейт : 1100 Кбит/секШирина : 640 пикселейВысота : 480 пикселейСоотношение сторон : 4:3Частота кадров : 25,000 кадров/секЦветовое пространство : YUVСубдискретизация насыщенности : 4:2:0Битовая глубина : 8 битТип развёртки : ПрогрессивнаяМетод сжатия : С потерямиБит/(Пиксели*Кадры) : 0.143Размер потока : 19,7 Мбайт (89%)Библиотека кодирования : XviD 1.2.1 (UTC 2008-12-04)
АудиоИдентификатор : 1Формат файла : MPEG AudioВерсия формата : Version 1Профиль формата : Layer 3Идентификатор кодека : 55Идентификатор кодека/Подсказка : MP3Продолжительность : 2 м. 30 с.Вид битрейта : ПостоянныйБитрейт : 128 Кбит/секКаналы : 2 каналаЧастота : 44,1 КГцМетод сжатия : С потерямиРазмер потока : 2,29 Мбайт (10%)Выравнивание : Разделение по промежуткамПродолжительность промежутка : 40 мс. (1,00 видеокадр)Время предзагрузки промежутка : 500 мс.Библиотека кодирования : LAME3.99rНастройки программы : -m s -V 4 -q 2 -lowpass 17 -b 128

Скриншоты


Раздача обновлена 24.12.2014! Добавлены недостающие 31, 53 и 56 серии, а также 59 и 60 серия!


[geo-torrent.biz]_t_4168016.torrent
Torrent: Registered ·  [ 2018-10-05 22:02 ] ·  028518e41fea1cdac74256a862624693b5d6be51

18 KB

Status: checked
Completed: 0 times
Size: 1.2 GB
Rating: 
(Votes: 0)
Say thanks: 0  Thanks
Похожие темы
[Profile]    [PM]
Display posts from previous:    
Reply to topic

The time now is: Today 16:35

All times are GMT + 7 Hours



You cannot post new topics in this forum
You cannot reply to topics in this forum
You cannot edit your posts in this forum
You cannot delete your posts in this forum
You cannot vote in polls in this forum
You cannot attach files in this forum
You can download files in this forum