Рисовашки / Сезон: 1 / Серии: 4 из 52 (Дмитрий Цветков) [2017, Детский, Приключения, WEBRip, rus] (обучающий)

Reply to topic
DL-List and Torrent activity [Update пиров]
Size:  353 MB   |    Registered:  11 months 5 days   |    Completed:  0 times

Seeder not seen: Never

 
   
 
 
 
Author Message

Генри

Post 02-Jan-2019 15:17

[Quote]

Рисовашки
Страна: Россия
Жанр: Детский, Приключения
Продолжительность серии: ~ 00:07:00
Год выхода: 2017-2018
Перевод: Не требуется
Русские субтитры: нет
Режиссёр: Дмитрий Цветков
Роли озвучивали: Екатерина Тюменцева, Максим Иванкин, Виктория Баленко, Маргарита Ануфриева, Арсений Решетников, Софья Шагова
Описание: Максим и Катя - брат и сестра в обычной семье. Скоро они пойдут в школу, но пока еще имеют достаточно много времени для игр и очень любят рисовать. Живут дети вместе с любимыми Мамой и Папой. А пес Ластик - это всеобщий любимец семьи, верный детский друг и помощник. Это их обычный мир, тот к которому привыкли мы все...
Но есть и мир детских фантазий, куда перемещаются герои, когда начинают рисовать. В этом мире они маленькие человечки: Кисточка и Карандаш, которые живут на столе в детской комнате!
С помощью своих друзей, неугомонных Мелков и доброй Феи Вдохновения, они создают новые замечательные истории в большом детском альбоме безграничного воображения. Конечно же, их четвероногий друг Ластик следует за ними!
Добро пожаловать в мир Рисовашек!
Качество: WEBRip 720p
Формат файла: MP4
Видео: AVC, 1280*720, 25,000 кадров/сек, ~2000 Кбит/сек
Аудио: AAC, 48,0 КГц, 2 канала, 235 Кбит/сек
Список серий:1 серия - Летать
2 серия - Верный слоник
3 серия - Волшебные сны
4 серия - Котик-учитель

Скриншоты

Подробные технические данные

ОбщееПолное имя : D:\Рисовашки - Летать. Детский развивающий мультфильм (1 серия).mp4Формат файла : MPEG-4Профиль формата : Base Media / Version 2Идентификатор кодека : mp42 (mp42/mp41/isom/avc1)Размер файла : 108 МбайтПродолжительность : 7 м. 27 с.Режим общего битрейта : ПеременныйОбщий поток : 2030 Кбит/секДата кодирования : UTC 2017-05-10 10:29:38Дата пометки : UTC 2017-05-10 10:29:38
ВидеоИдентификатор : 1Формат файла : AVCФормат файла/Информация : Advanced Video CodecПрофиль формата : High@L3.2Параметр CABAC формата : ДаПараметр ReFrames формата : 5 кадровИдентификатор кодека : avc1Идентификатор кодека/Информация : Advanced Video CodingПродолжительность : 7 м. 27 с.Битрейт : 1791 Кбит/секШирина : 1280 пикселейВысота : 720 пикселейСоотношение сторон : 16:9Режим частоты кадров : ПостоянныйЧастота кадров : 25,000 кадров/секЦветовое пространство : YUVСубдискретизация насыщенности : 4:2:0Битовая глубина : 8 битТип развёртки : ПрогрессивнаяБит/(Пиксели*Кадры) : 0.078Размер потока : 95,4 Мбайт (88%)Библиотека кодирования : x264 core 148 r10 90a61ecНастройки программы : cabac=1 / ref=5 / deblock=1:0:0 / analyse=0x3:0x113 / me=hex / subme=8 / psy=1 / psy_rd=1.00:0.00 / mixed_ref=1 / me_range=16 / chroma_me=1 / trellis=2 / 8x8dct=1 / cqm=0 / deadzone=21,11 / fast_pskip=1 / chroma_qp_offset=-2 / threads=22 / lookahead_threads=3 / sliced_threads=0 / nr=0 / decimate=1 / interlaced=0 / bluray_compat=0 / stitchable=1 / constrained_intra=0 / bframes=3 / b_pyramid=2 / b_adapt=1 / b_bias=0 / direct=3 / weightb=1 / open_gop=0 / weightp=2 / keyint=infinite / keyint_min=25 / scenecut=40 / intra_refresh=0 / rc_lookahead=50 / rc=crf / mbtree=1 / crf=20.0 / qcomp=0.60 / qpmin=5 / qpmax=69 / qpstep=4 / vbv_maxrate=2750 / vbv_bufsize=7500 / crf_max=0.0 / nal_hrd=none / filler=0 / ip_ratio=1.40 / aq=1:1.00Дата кодирования : UTC 2017-05-10 10:29:38Дата пометки : UTC 2017-05-10 10:29:38Цветовой диапазон : LimitedОсновные цвета : BT.709Характеристики трансфера : BT.709Коэффициенты матрицы : BT.709
АудиоИдентификатор : 2Формат файла : AACФормат файла/Информация : Advanced Audio CodecПрофиль формата : LCИдентификатор кодека : 40Продолжительность : 7 м. 27 с.Вид битрейта : ПеременныйБитрейт : 235 Кбит/секКаналы : 2 каналаРасположение каналов : Front: L RЧастота : 48,0 КГцЧастота кадров : 46,875 кадров/сек (1024 spf)Метод сжатия : С потерямиРазмер потока : 12,5 Мбайт (12%)Дата кодирования : UTC 2017-05-10 10:29:38Дата пометки : UTC 2017-05-10 10:29:38

Внимание! Раздача ведётся путём добавления новых серий

Внимание! Раздача ведётся путём добавления новых серий; при каждом добавлении создётся новый торрент. Чтобы начать докачку новой серии, пользователям необходимо сделать следующее:
(1) остановить скачивание,
(2) удалить старый торрент у себя из клиента (старые серии удалять не надо),
(3) скачать новый торрент и запустить его у себя в клиенте вместо старого, при этом указать клиенту путь в старую папку куда и должно происходить скачивание новых серий.
Ваш клиент при этом должен произвести хеширование (проверку) старой папки (если не производит сам - помогите ему сделать это), и будет докачивать только те серии которых у вас ещё нет. Старые серии при этом не удаляются, а продолжают раздаваться!
Eсли вы уже удалили старые серии, то предотвратить повторную закачку старых серий можно, отжав галочку в соответсвующих местах при запуске нового торрента.


[geo-torrent.biz]_t_5400867.torrent
Torrent: Registered ·  [ 2019-01-02 14:14 ] ·  d776714f689c1d89ca7656e66d96a1fed4ef2412

15 KB

Status: checked
Completed: 0 times
Size: 353 MB
Rating: 
(Votes: 0)
Say thanks: 0  Thanks
Похожие темы
[Profile]    [PM]
Display posts from previous:    
Reply to topic

The time now is: Today 15:51

All times are GMT + 7 Hours



You cannot post new topics in this forum
You cannot reply to topics in this forum
You cannot edit your posts in this forum
You cannot delete your posts in this forum
You cannot vote in polls in this forum
You cannot attach files in this forum
You can download files in this forum