(Roots Reggae) [CD] Dennis Brown - If I Didn\'t Love You - 1992, FLAC (tracks+.cue), lossless

Reply to topic
DL-List and Torrent activity [Update пиров]
Size:  190 MB   |    Registered:  6 months 13 days   |    Completed:  0 times

Seeder not seen: Never

 
   
 
 
 
Author Message

Генри

Post 04-May-2019 22:15

[Quote]

Dennis Brown / If I Didn't Love You
Жанр: Roots Reggae
Носитель: CD
Страна-производитель диска (релиза): US
Год издания: 1992
Издатель (лейбл): Jamaican Gold ‎
Номер по каталогу: 5606-2
Аудиокодек: FLAC (*.flac)
Тип рипа: tracks+.cue
Битрейт аудио: lossless
Продолжительность: 00:34:06
Источник: локальная сеть
Наличие сканов в содержимом раздачи: нет
Треклист:
1 If I Didn't Love You
2 Birds Have Their Nest
3 Long And Winding Road
4 Blood Sun
5 Run Too Late
6 Only A Smile
7 Silver Words
8 Go Now
9 Home Sweet Home

Лог создания рипа

EAC Auslese-Logdatei vom 27. November 2005, 3:56 fьr CDDennis Brown / If I Didn't Love You
Benutztes Laufwerk : HL-DT-STCD-RW GCE-8481B Adapter: 1 ID: 0Lesemodus : Sicher mit KEINEM C2, Accurate Stream, KEIN Puffer abgeschaltetLeseoffset Korrektur : 6Ьberlesen in das Lead-In und Lead-Out : Nein
Benutztes Ausgabeformat : Interne WAV Routinen 44.100 Hz; 16 Bit; Stereo
Andere Einstellungen : Fьlle fehlende Offsetsample mit Stille auf : Ja Lцsche fьhrende und nachfolgende stille Blцcke : Nein Natьrliche Win32 Schnittstelle fьr Win NT/2000/XP
Track 1 Dateiname F:\~ fertig ~\Dennis Brown 01 If I Didn't Love You.wav
Spitzenpegel 90.0 % Track Qualitдt 99.5 % Kopie CRC F238F243 Kopie OK
Track 2 Dateiname F:\~ fertig ~\Dennis Brown 02 Birds Have Their Nest.wav
Verdдchtige Position 0:00:43 - 0:00:46
Spitzenpegel 94.6 % Track Qualitдt 98.6 % Kopie CRC D58ABA88 Kopie beendet
Track 3 Dateiname F:\~ fertig ~\Dennis Brown 03 Long and Winding Road.wav
Spitzenpegel 89.3 % Track Qualitдt 100.0 % Kopie CRC 7CBD65E4 Kopie OK
Track 4 Dateiname F:\~ fertig ~\Dennis Brown 04 Blood Sun.wav
Spitzenpegel 89.5 % Track Qualitдt 99.9 % Kopie CRC B56DFE32 Kopie OK
Track 5 Dateiname F:\~ fertig ~\Dennis Brown 05 Run Too Late.wav
Spitzenpegel 89.5 % Track Qualitдt 100.0 % Kopie CRC 0BE6A491 Kopie OK
Track 6 Dateiname F:\~ fertig ~\Dennis Brown 06 Only a Smile.wav
Spitzenpegel 89.8 % Track Qualitдt 100.0 % Kopie CRC 590E35B0 Kopie OK
Track 7 Dateiname F:\~ fertig ~\Dennis Brown 07 Silver Word's.wav
Spitzenpegel 89.0 % Track Qualitдt 100.0 % Kopie CRC 5B180544 Kopie OK
Track 8 Dateiname F:\~ fertig ~\Dennis Brown 08 Go Now.wav
Spitzenpegel 89.8 % Track Qualitдt 99.9 % Kopie CRC E2356A1E Kopie OK
Track 9 Dateiname F:\~ fertig ~\Dennis Brown 09 Home Sweet Home.wav
Spitzenpegel 93.8 % Track Qualitдt 99.9 % Kopie CRC 47FDF9B8 Kopie OK
Es sind Fehler aufgetreten
Ende des Statusreports

Содержание индексной карты (.CUE)

PERFORMER "Dennis Brown"TITLE "If I Didn't Love You"FILE "01 - If I Didn't Love You.wav" WAVE TRACK 01 AUDIO TITLE "If I Didn't Love You" PERFORMER "Dennis Brown" INDEX 01 00:00:00 TRACK 02 AUDIO TITLE "Birds Have Their Nest" PERFORMER "Dennis Brown" INDEX 00 03:05:45FILE "02 - Birds Have Their Nest.wav" WAVE INDEX 01 00:00:00 TRACK 03 AUDIO TITLE "Long and Winding Road" PERFORMER "Dennis Brown" INDEX 00 03:52:18FILE "03 - Long And Winding Road.wav" WAVE INDEX 01 00:00:00 TRACK 04 AUDIO TITLE "Blood Sun" PERFORMER "Dennis Brown" INDEX 00 03:52:27FILE "04 - Blood Sun.wav" WAVE INDEX 01 00:00:00 TRACK 05 AUDIO TITLE "Run Too Late" PERFORMER "Dennis Brown" INDEX 00 03:19:63FILE "05 - Run Too Late.wav" WAVE INDEX 01 00:00:00 TRACK 06 AUDIO TITLE "Only a Smile" PERFORMER "Dennis Brown" INDEX 00 02:46:17FILE "06 - Only A Smile.wav" WAVE INDEX 01 00:00:00 TRACK 07 AUDIO TITLE "Silver Word's" PERFORMER "Dennis Brown" INDEX 00 03:20:58FILE "07 - Silver Word's.wav" WAVE INDEX 01 00:00:00 TRACK 08 AUDIO TITLE "Go Now" PERFORMER "Dennis Brown" INDEX 00 02:50:25FILE "08 - Go Now.wav" WAVE INDEX 01 00:00:00 TRACK 09 AUDIO TITLE "Home Sweet Home" PERFORMER "Dennis Brown" INDEX 00 03:25:20FILE "09 - Home Sweet Home.wav" WAVE INDEX 01 00:00:00


[geo-torrent.biz]_t_5716681.torrent
Torrent: Registered ·  [ 2019-05-04 22:09 ] ·  9ac971df58506d2d61cb1f0d686c0d9e62073e34

16 KB

Status: checked
Completed: 0 times
Size: 190 MB
Rating: 
(Votes: 0)
Say thanks: 0  Thanks
Похожие темы
[Profile]    [PM]
Display posts from previous:    
Reply to topic

The time now is: Today 08:57

All times are GMT + 7 Hours



You cannot post new topics in this forum
You cannot reply to topics in this forum
You cannot edit your posts in this forum
You cannot delete your posts in this forum
You cannot vote in polls in this forum
You cannot attach files in this forum
You can download files in this forum