(Pop, Soul, Disco) [CD] The Hues Corporation - Freedom For The Stallion - 2014, FLAC (tracks+.cue), lossless

Reply to topic
DL-List and Torrent activity [Update пиров]
Size:  328 MB   |    Registered:  5 months 9 days   |    Completed:  0 times

Seeder not seen: Never

 
   
 
 
 
Author Message

Кейт

Post 07-May-2019 12:29

[Quote]

The Hues Corporation / Freedom For The Stallion
Жанр: Pop, Soul, Disco
Носитель: CD
Страна-производитель диска (релиза): UK
Год издания: 2014 (1973)
Издатель (лейбл): Big Break Records
Номер по каталогу: CDBBRX 0183
Аудиокодек: FLAC (*.flac)
Тип рипа: tracks+.cue
Продолжительность: 00:39:38
Источник: awaxhome
Наличие сканов в содержимом раздачи: да
Треклист:
1 Bound On A Reason 3:17
2 Off My Cloud 4:18
3 All Goin' Down Together 2:51
4 Rock The Boat 3:23
5 Freedom For The Stallion 4:02
6 The Family 3:12
7 Go To The Poet 2:54
8 Salvation Lady (1-3-5) 3:21
9 Live A Lie 2:14
10 Miracle Maker (Sweet Soul Shaker) 3:17
Bonus Tracks
11 Freedom For The Stallion (Single Version) 3:46
12 Rock The Boat (Single Version) 3:06

Лог создания рипа

Exact Audio Copy V1.0 beta 3 from 29. August 2011
EAC extraction logfile from 7. July 2014, 22:11
The Hues Corporation / Freedom For The Stallion
Used drive : TSSTcorp CDDVDW Adapter: 0 ID: 0
Read mode : SecureUtilize accurate stream : YesDefeat audio cache : YesMake use of C2 pointers : No
Read offset correction : 6Overread into Lead-In and Lead-Out : NoFill up missing offset samples with silence : YesDelete leading and trailing silent blocks : NoNull samples used in CRC calculations : YesUsed interface : Native Win32 interface for Win NT & 2000Gap handling : Appended to previous track
Used output format : User Defined EncoderSelected bitrate : 128 kBit/sQuality : HighAdd ID3 tag : NoCommand line compressor : C:\Program Files (x86)\Exact Audio Copy\Flac\flac.exeAdditional command line options : -8 -V -T "ARTIST=%artist%" -T "TITLE=%title%" -T "ALBUM=%albumtitle%" -T "DATE=%year%" -T "TRACKNUMBER=%tracknr%" -T "TOTALTRACKS=%numtracks%" -T "GENRE=%genre%" -T "ALBUMARTIST=%albumartist%" -T "ALBUM ARTIST=%albumartist%" -T "COMMENT=EAC Secure Mode, Test & Copy, AccurateRip, FLAC -8" %source%
TOC of the extracted CD
Track | Start | Length | Start sector | End sector --------------------------------------------------------- 1 | 0:00.00 | 3:17.23 | 0 | 14797 2 | 3:17.23 | 4:18.36 | 14798 | 34183 3 | 7:35.59 | 2:51.29 | 34184 | 47037 4 | 10:27.13 | 3:23.37 | 47038 | 62299 5 | 13:50.50 | 4:01.45 | 62300 | 80419 6 | 17:52.20 | 3:12.11 | 80420 | 94830 7 | 21:04.31 | 2:53.51 | 94831 | 107856 8 | 23:58.07 | 3:20.40 | 107857 | 122896 9 | 27:18.47 | 2:14.21 | 122897 | 132967 10 | 29:32.68 | 3:17.35 | 132968 | 147777 11 | 32:50.28 | 3:46.28 | 147778 | 164755 12 | 36:36.56 | 3:06.24 | 164756 | 178729
Track 1
Filename C:\AddisistheGodFlac\01 - Bound On A Reason.wav
Pre-gap length 0:00:02.00
Peak level 96.5 % Extraction speed 2.6 X Track quality 100.0 % Test CRC A5CE5F1D Copy CRC A5CE5F1D Accurately ripped (confidence 1) [6CE17D06] (AR v2) Copy OK
Track 2
Filename C:\AddisistheGodFlac\02 - Off My Cloud.wav
Pre-gap length 0:00:01.38
Peak level 96.5 % Extraction speed 3.0 X Track quality 100.0 % Test CRC BF23AFBE Copy CRC BF23AFBE Accurately ripped (confidence 1) [359218A0] (AR v2) Copy OK
Track 3
Filename C:\AddisistheGodFlac\03 - All Goin' Down Together.wav
Pre-gap length 0:00:01.39
Peak level 96.5 % Extraction speed 3.0 X Track quality 100.0 % Test CRC D3A91D90 Copy CRC D3A91D90 Accurately ripped (confidence 1) [63F02669] (AR v2) Copy OK
Track 4
Filename C:\AddisistheGodFlac\04 - Rock The Boat.wav
Pre-gap length 0:00:02.00
Peak level 96.5 % Extraction speed 2.6 X Track quality 99.9 % Test CRC 38493D54 Copy CRC 38493D54 Accurately ripped (confidence 1) [8E01F893] (AR v2) Copy OK
Track 5
Filename C:\AddisistheGodFlac\05 - Freedom For The Stallion.wav
Pre-gap length 0:00:00.69
Peak level 96.5 % Extraction speed 3.6 X Track quality 100.0 % Test CRC FBC815C0 Copy CRC FBC815C0 Accurately ripped (confidence 1) [6F0BF6CF] (AR v2) Copy OK
Track 6
Filename C:\AddisistheGodFlac\06 - The Family.wav
Pre-gap length 0:00:01.42
Peak level 96.5 % Extraction speed 3.6 X Track quality 100.0 % Test CRC 6581131D Copy CRC 6581131D Accurately ripped (confidence 1) [D086F1A5] (AR v2) Copy OK
Track 7
Filename C:\AddisistheGodFlac\07 - Go To The Poet.wav
Pre-gap length 0:00:02.24
Peak level 96.5 % Extraction speed 3.7 X Track quality 100.0 % Test CRC 3E575FA8 Copy CRC 3E575FA8 Accurately ripped (confidence 1) [8378BA82] (AR v2) Copy OK
Track 8
Filename C:\AddisistheGodFlac\08 - Salvation Lady (1-2-5).wav
Pre-gap length 0:00:01.15
Peak level 96.5 % Extraction speed 3.1 X Track quality 99.9 % Test CRC CA28560C Copy CRC CA28560C Accurately ripped (confidence 1) [E358E072] (AR v2) Copy OK
Track 9
Filename C:\AddisistheGodFlac\09 - Live A Lie.wav
Pre-gap length 0:00:01.40
Peak level 96.5 % Extraction speed 3.7 X Track quality 100.0 % Test CRC 2EF9EFC1 Copy CRC 2EF9EFC1 Accurately ripped (confidence 1) [03E56971] (AR v2) Copy OK
Track 10
Filename C:\AddisistheGodFlac\10 - Miracle Maker (Sweet Soul Shaker).wav
Pre-gap length 0:00:01.17
Peak level 96.5 % Extraction speed 4.2 X Track quality 100.0 % Test CRC 533BCCEF Copy CRC 533BCCEF Accurately ripped (confidence 1) [C083FFF4] (AR v2) Copy OK
Track 11
Filename C:\AddisistheGodFlac\11 - Freedom For The Stallion (Single Version).wav
Pre-gap length 0:00:03.02
Peak level 96.5 % Extraction speed 3.5 X Track quality 99.9 % Test CRC 24E8BE3F Copy CRC 24E8BE3F Accurately ripped (confidence 1) [82265186] (AR v2) Copy OK
Track 12
Filename C:\AddisistheGodFlac\12 - Rock The Boat (Single Version).wav
Pre-gap length 0:00:01.53
Peak level 96.5 % Extraction speed 4.4 X Track quality 100.0 % Test CRC 294C0049 Copy CRC 294C0049 Accurately ripped (confidence 1) [AB816CEA] (AR v2) Copy OK
All tracks accurately ripped
No errors occurred
End of status report
==== Log checksum 9A4FD6BD1B28FB3BAFCE95F1755E84199D43C5EDEAA913DA86555BCEDB8711D0 ====

Содержание индексной карты (.CUE)

REM GENRE SoulREM DATE 1973REM DISCID AC094F0CREM COMMENT "ExactAudioCopy v1.0b3"PERFORMER "The Hues Corporation"TITLE "Freedom For The Stallion"FILE "01 - Bound On A Reason.wav" WAVE TRACK 01 AUDIO TITLE "Bound On A Reason" PERFORMER "The Hues Corporation" INDEX 01 00:00:00 TRACK 02 AUDIO TITLE "Off My Cloud" PERFORMER "The Hues Corporation" INDEX 00 03:15:60FILE "02 - Off My Cloud.wav" WAVE INDEX 01 00:00:00 TRACK 03 AUDIO TITLE "All Goin' Down Together" PERFORMER "The Hues Corporation" INDEX 00 04:16:72FILE "03 - All Goin' Down Together.wav" WAVE INDEX 01 00:00:00 TRACK 04 AUDIO TITLE "Rock The Boat" PERFORMER "The Hues Corporation" INDEX 00 02:49:29FILE "04 - Rock The Boat.wav" WAVE INDEX 01 00:00:00 TRACK 05 AUDIO TITLE "Freedom For The Stallion" PERFORMER "The Hues Corporation" INDEX 00 03:22:43FILE "05 - Freedom For The Stallion.wav" WAVE INDEX 01 00:00:00 TRACK 06 AUDIO TITLE "The Family" PERFORMER "The Hues Corporation" INDEX 00 04:00:03FILE "06 - The Family.wav" WAVE INDEX 01 00:00:00 TRACK 07 AUDIO TITLE "Go To The Poet" PERFORMER "The Hues Corporation" INDEX 00 03:09:62FILE "07 - Go To The Poet.wav" WAVE INDEX 01 00:00:00 TRACK 08 AUDIO TITLE "Salvation Lady (1-2-5)" PERFORMER "The Hues Corporation" INDEX 00 02:52:36FILE "08 - Salvation Lady (1-2-5).wav" WAVE INDEX 01 00:00:00 TRACK 09 AUDIO TITLE "Live A Lie" PERFORMER "The Hues Corporation" INDEX 00 03:19:00FILE "09 - Live A Lie.wav" WAVE INDEX 01 00:00:00 TRACK 10 AUDIO TITLE "Miracle Maker (Sweet Soul Shaker)" PERFORMER "The Hues Corporation" INDEX 00 02:13:04FILE "10 - Miracle Maker (Sweet Soul Shaker).wav" WAVE INDEX 01 00:00:00 TRACK 11 AUDIO TITLE "Freedom For The Stallion (Single Version)" PERFORMER "The Hues Corporation" INDEX 00 03:14:33FILE "11 - Freedom For The Stallion (Single Version).wav" WAVE INDEX 01 00:00:00 TRACK 12 AUDIO TITLE "Rock The Boat (Single Version)" PERFORMER "The Hues Corporation" INDEX 00 03:44:50FILE "12 - Rock The Boat (Single Version).wav" WAVE INDEX 01 00:00:00


[geo-torrent.biz]_t_5727339.torrent
Torrent: Registered ·  [ 2019-05-07 12:29 ] ·  2b9785896b065780b14b9cde805a2ab8c9a1e737

15 KB

Status: checked
Completed: 0 times
Size: 328 MB
Rating: 
(Votes: 0)
Say thanks: 0  Thanks
Похожие темы
[Profile]    [PM]
Display posts from previous:    
Reply to topic

The time now is: Today 19:52

All times are GMT + 7 Hours



You cannot post new topics in this forum
You cannot reply to topics in this forum
You cannot edit your posts in this forum
You cannot delete your posts in this forum
You cannot vote in polls in this forum
You cannot attach files in this forum
You can download files in this forum