(Gothic Metal, Gothic Rock) VA - Gothic Romance 1-7 - 2009-2019, FLAC (image+.cue), lossless

Reply to topic
DL-List and Torrent activity [Update пиров]
Size:  6.75 GB   |    Registered:  6 months 10 days   |    Completed:  0 times

Seeder not seen: Never

 
   
 
 
 
Author Message

Генри

Post 07-May-2019 22:00

[Quote]

Gothic Romance 1-7
The Best Goth Love Songs
Жанр: Gothic Metal, Gothic Rock
Носитель: CD
Страна-производитель дисков: Германия
Годы издания: 2009-2019
Издатель: ZYX Music
Аудиокодек: FLAC (*.flac)
Тип рипа: image+.cue
Битрейт аудио: lossless
(CUETools FLACCL 0.4 (1-6)/2.1.7 (7), «-7 --verify»)
Продолжительность: 16:53:58
Источник: Собственные диски
Наличие сканов в содержимом раздачи: да
-
Скачать в MP3
-

2009 - Gothic Romance

Номер по каталогу: GCR 81020-2
Продолжительность: 1:45:36
Треклист CD1:
01 - Nightwish - Forever Yours (3:50)
02 - Umbra et Imago - Hörst du mein Rufen? (Version 2005) (5:36)
03 - De/Vision - Love will Find a Way (4:29)
04 - Poisonblack - With Her I Die (5:20)
05 - Eisheilig - Dein Traum (4:19)
06 - Megaherz - Kaltes Grab (5:58)
07 - For My Pain - For My Pain (3:57)
08 - Unheilig - Mein Stern (5:26)
09 - Epica - Chasing the Dragon (7:37)
10 - Deathstars - Syndrome (3:10)
11 - Subway to Sally - Eisblumen (4:34)
Треклист CD2:
01 - Eden weint im Grab - Kindheitsrequiem (2:44)
02 - Lacrimas Profundere - Amber Girl (2:58)
03 - end of green - Hurter (4:43)
04 - To/Die/For - Lacrimarum (4:54)
05 - ASP - Werben (Rerecorded) (4:30)
06 - Schöngeist - Mein Herz Bricht (5:00)
07 - Katra - Promise Me Everything (4:22)
08 - Lacuna Coil - Within Me (3:40)
09 - London After Midnight - Pure (5:26)
10 - Sara Noxx feat. 18 Summers - Superior Love (3:49)
11 - Eisbrecher - Schwarze Witwe (3:54)
12 - Clan of Xymox - Louise (5:20)

2010 - Gothic Romance 2

Номер по каталогу: GCR 81028-2
Продолжительность: 2:31:58
Треклист CD1:
01 - Mono Inc. - If I Fail (7:02)
02 - Lacuna Coil - Purify (4:35)
03 - Leaves’ Eyes - Irish Rain (3:59)
04 - Negative - Angels Won't Lie (6:59)
05 - Paradise Lost - Last Regret (4:24)
06 - Flowing Tears - Ballad of a Lonely God (3:36)
07 - Subway to Sally - Komm in meinen Schlaf (4:43)
08 - Lacrimosa - A Prayer for Your Heart (5:11)
09 - Theatre of Tragedy - Frozen (5:20)
10 - Bury Me Deep - The Angel's Handshake (3:42)
11 - Michelle Darkness - Angelsong (4:27)
12 - end of green - My Crying Veins (6:43)
13 - Liv Kristine - Blue Emptiness (3:50)
14 - Sirenia - In Sumerian Haze (4:39)
15 - UnSun - Memories (3:49)
16 - The 69 Eyes - Eternal (4:21)
Треклист CD2:
01 - Nightwish - While Your Lips are Still Red (4:20)
02 - Poisonblack - Pain Becomes Me (4:08)
03 - Lacrimas Profundere - Sad Theme for a Marriage (3:33)
04 - Letzte Instanz - Traumlos (3:38)
05 - Tristania - Deadlocked (5:55)
06 - Krypteria - For You I'll Bring the Devil Down (3:30)
07 - Xandria - Eversleeping (Album Version) (3:42)
08 - Stream of Passion - In the End (4:04)
09 - Delain - See Me in Shadow (4:42)
10 - Scream Silence - My Eyes (6:55)
11 - Schöngeist - Frag mich warum (3:43)
12 - CIAM - Epitaph (4:51)
13 - Crematory - Say Goodbye (6:13)
14 - Beloved Enemy - Rain (4:50)
15 - Type O Negative - Die With Me (6:22)
16 - Megaherz - 5. März (Staubkind Remix) (4:12)

2010 - Gothic Romance 3

Номер по каталогу: GCR 81035-2
Продолжительность: 2:34:06
Треклист CD1:
01 - Darkseed - Timeless Skies (4:19)
02 - Lacrimas Profundere - I Don't Care (4:06)
03 - Indica - Islands of Light (3:02)
04 - Lacuna Coil - Falling (5:40)
05 - Nightwish - Sleeping Sun (4:04)
06 - Flowing Tears - Portsall (Departure Song) (3:13)
07 - Tiamat - Best Friend Money can Buy (4:37)
08 - Liv Kristine - Twofold (3:07)
09 - Saviour Machine - American Babylon (7:33)
10 - Eisheilig - Die dunkelste Stunde (3:57)
11 - end of green - Tie Me a Rope... While You're Calling My Name (5:16)
12 - Leaves’ Eyes - Morgenland (2:54)
13 - Voices of Destiny - Bitter Visions (5:02)
14 - Sinamore - The Art of Regret (7:31)
15 - Therion - Seawinds (4:23)
16 - Poisonblack - Down the Drain (8:04)
Треклист CD2:
01 - Umbra et Imago - Goth' Music (6:47)
02 - Tristania - Exile (4:27)
03 - Theatre of Tragedy - Forever Is the World (4:42)
04 - Elis - Rainbow (4:11)
05 - Zeraphine - Wenn du gehst (5:25)
06 - Mono Inc. - Teach Me to Love (5:39)
07 - Stream of Passion - Breathing Again (3:41)
08 - Leandra - Inverted Mirrors of Decay (5:37)
09 - Xandria - Dancer (3:50)
10 - The Gathering - Shrink (4:02)
11 - Eric Fish - Wird es sein? (5:20)
12 - Elysion - Far From the Edge (3:36)
13 - Antimatter - Epitaph (4:11)
14 - Mortal Love - All the Beauty (6:12)
15 - Edenbridge - Out of this World (5:12)
16 - Schandmaul - Dein Anblick (4:30)

2011 - Gothic Romance 4

Номер по каталогу: GCR 81038-2
Продолжительность: 2:34:09
Треклист CD1:
01 - Paradise Lost - Your own Reality (4:03)
02 - Mono Inc. - In My Darkest Hours (5:11)
03 - Bury Me Deep - The Pain (6:29)
04 - Angelzoom - These Arms of Mine (3:14)
05 - Leaves’ Eyes - Norwegian Lovesong (3:45)
06 - A Spell Inside - Waiting (5:02)
07 - Golden Apes - Windlands (5:57)
08 - Love like Blood - Remember (4:47)
09 - Secret Discovery - Broken (6:08)
10 - Traumtaenzer - Die Wahrheit (6:16)
11 - Liv Kristine - Love in Grey (4:10)
12 - Nightwish - Walking in the Air (5:28)
13 - Megaherz - Mein Gral (3:59)
14 - Teufel - Alles nur ein Traum (4:00)
15 - The House of Usher - To Whatever End (7:10)
Треклист CD2:
01 - Sirenia - Save me from Myself (4:15)
02 - Imperia - Broken Wings (6:34)
03 - Lacrimas Profundere - Dead Heart Serenade (3:26)
04 - Theatre of Tragedy - Venus (5:33)
05 - Whispers in the Shadow - Blessed in Disguise (3:48)
06 - Exit to Eden - Remember (6:29)
07 - The Cold - Just for Tonight (7:20)
08 - Schöngeist - Nie mehr allein (4:38)
09 - Scream Silence - Euphoria (7:08)
10 - Denight - The Core (5:55)
11 - Destroid - Let Me Leave (7:07)
12 - Sinamore - Darkness of Day (5:15)
13 - Letzte Instanz - Dein Licht (4:26)
14 - Schandmaul - Prinzessin (3:32)
15 - Edenbridge - Eternity (3:05)

2012 - Gothic Romance 5

Номер по каталогу: GCR 81046-2
Продолжительность: 2:33:44
Треклист CD1:
01 - Lacuna Coil - Within Me (3:40)
02 - Nightwish - Away (4:29)
03 - Mono Inc. - Never Say Die (4:15)
04 - Poisonblack - From Now-Here to Nowhere (6:11)
05 - Nemesea - High Enough (4:12)
06 - Stream of Passion - The Hunt (4:27)
07 - Exilia - In My Veins (3:24)
08 - Xandria - Some like it Cold (3:57)
09 - Delain - Come Closer (4:31)
10 - Sentenced - End of the Road (5:02)
11 - Coronatus - Terra Incognita (4:32)
12 - Dommin - Remember (4:59)
13 - Leandra - Lullaby (5:12)
14 - The Beauty of Gemina - Voices of Winter (4:22)
15 - Arven - Midwinter Nights (5:02)
16 - Eisbrecher - Der Hauch des Lebens (4:06)
17 - Type O Negative - Love You to Death (4:51)
Треклист CD2:
01 - Subway to Sally - Am Ende des Wegs (4:52)
02 - Megaherz - Abendstern (3:42)
03 - Darkseed - Seeds of Sorrow (4:42)
04 - end of green - Starlight (4:17)
05 - Seelenzorn - Wann kommt die Zeit (5:14)
06 - Tristania - Amnesia (4:56)
07 - Sirenia - The Enigma of Life (6:15)
08 - Visions of Atlantis - Reflection (4:15)
09 - Mooncry - Hopeless Play (5:06)
10 - Alien Hand Syndrome - Broomstick Jesus (4:58)
11 - Elysion - Weakness in Your Eyes (4:01)
12 - Liv Kristine - The Rarest Flower (4:04)
13 - In This Moment - Into the Light (4:11)
14 - Letzte Instanz - Winter (4:47)
15 - Cryoshell - Trigger (3:54)
16 - Krypteria - (How Can Something so Good) Hurt so bad (3:56)
17 - Schlagwerk - Schließ die Augen (3:24)

2013 - Gothic Romance 6

Номер по каталогу: GCR 81053-2
Продолжительность: 2:31:30
Треклист CD1:
01 - Theatre of Tragedy - The Breaking (4:25)
02 - To/Die/For - Love's a Sickness (5:53)
03 - In This Moment - Scarlet (3:48)
04 - Xandria - The Dream is Still Alive (4:20)
05 - Poisonblack - The Kiss of Death (4:35)
06 - Destroid - I Walk Slow (5:01)
07 - Tiamat - The Sun Also Rises (5:24)
08 - The 69 Eyes - When a Love Comes to an End (3:47)
09 - Flowing Tears - For Tonight (3:50)
10 - Liv Kristine - Silence (3:49)
11 - Elandor - Goodbye (3:37)
12 - Secret Discovery - Forever in You (4:07)
13 - Brotherhood - So many Stars (5:02)
14 - A Spell Inside - Secrets (5:16)
15 - Solar Fake - I Can't Remember (4:03)
16 - Therion - Eye of Shiva (6:19)
Треклист CD2:
01 - Moonspell - Scorpion Flower (4:33)
02 - Paradise Lost - Worth Fighting For (4:11)
03 - Golden Apes - (The Lights of) Venus (5:40)
04 - De/Vision - Beauty of Decay (5:19)
05 - Imperia - Hold On (4:09)
06 - Krypteria - Turn the World Around (3:24)
07 - Sentenced - No One There (5:53)
08 - Megaherz - Das Licht am Ende der Welt (4:29)
09 - Nik Page feat. Joachim Witt - Dein Kuss (2:56)
10 - Gates of Dawn - The City Sleeps (5:18)
11 - Battlelore - Elves of Luva (4:40)
12 - Diabulus in Musica - Sentenced to Life (4:58)
13 - Heimataerde - Zwischen den Sternen (5:56)
14 - In Strict Confidence - In a Land So Far Away (4:49)
15 - Visions of Atlantis - Last Shut of Your Eyes (4:57)
16 - Arven - My Dear Friend (7:02)

2019 - Gothic Romance 7

Номер по каталогу: GCR 81076-2
Продолжительность: 2:22:55
Треклист CD1:
01 - Beyond the Black - Breeze (3:51)
02 - Kalidia - Midnight's Chant (3:24)
03 - Visions of Atlantis - Prayer to the Lost (4:11)
04 - Dark Sarah - Golden Moth (5:25)
05 - end of green - Like a Stranger (6:51)
06 - Leah - Ruins of Illusion (4:19)
07 - Liv Kristine - Unbreakable (4:19)
08 - Kamelot - In Twilight Hours (4:10)
09 - Amberian Dawn - Symphony Nr. 1, Part 2 - Darkness of Eternity (4:17)
10 - Sirenia - Aeon's Embrace (3:56)
11 - Edenbridge - Brothers on Diamir (6:52)
12 - Inner Core - Keep the Distance (5:01)
13 - Xandria - Dark Night of the Soul (Acoustic Version) (4:31)
14 - Sleeping Romance - December Flower (4:56)
15 - Poisonblack - Only You Can Tear Me Apart (7:45)
Треклист CD2:
01 - Within Temptation - Edge of the World (4:56)
02 - Delain - Chrysalis - The Last Breath (5:21)
03 - Visionatica - The Thorns (3:53)
04 - Leaves’ Eyes - Empty Horizon (4:58)
05 - Sentenced - The River (4:52)
06 - Midnattsol - The Unveiled Truth (3:58)
07 - Exilia - In My Veins (3:24)
08 - HammerFall - Second to None (5:29)
09 - In Fall - Black Flower (3:51)
10 - Lacuna Coil - One Cold Day (6:10)
11 - DYLEM - For Always (3:26)
12 - Dunkelschön - Immer (4:02)
13 - Florian Grey - A Cold Days Night (5:26)
14 - Tristania - Lavender (5:11)
15 - Megaherz - 5. März (Staubkind Remix) (4:11)

Логи:Gothic RomanceЛог создания рипа CD1

Exact Audio Copy V1.0 beta 3 from 29. August 2011
EAC extraction logfile from 8. December 2013, 2:18
Various Artists / Gothic Romance CD1
Used drive : ASUS BW-14D1XT Adapter: 2 ID: 0
Read mode : SecureUtilize accurate stream : YesDefeat audio cache : YesMake use of C2 pointers : No
Read offset correction : 6Overread into Lead-In and Lead-Out : NoFill up missing offset samples with silence : YesDelete leading and trailing silent blocks : NoNull samples used in CRC calculations : YesUsed interface : Native Win32 interface for Win NT & 2000
Used output format : User Defined EncoderSelected bitrate : 896 kBit/sQuality : HighAdd ID3 tag : NoCommand line compressor : C:\Program Files (x86)\Exact Audio Copy\CUETools\CUETools.FLACCL.cmd.exeAdditional command line options : -7 --verify %source% -o %dest%
TOC of the extracted CD
Track | Start | Length | Start sector | End sector --------------------------------------------------------- 1 | 0:00.00 | 3:50.30 | 0 | 17279 2 | 3:50.30 | 5:35.68 | 17280 | 42472 3 | 9:26.23 | 4:29.06 | 42473 | 62653 4 | 13:55.29 | 5:19.67 | 62654 | 86645 5 | 19:15.21 | 4:19.04 | 86646 | 106074 6 | 23:34.25 | 5:57.71 | 106075 | 132920 7 | 29:32.21 | 3:57.14 | 132921 | 150709 8 | 33:29.35 | 5:26.30 | 150710 | 175189 9 | 38:55.65 | 7:37.21 | 175190 | 209485 10 | 46:33.11 | 3:09.59 | 209486 | 223719 11 | 49:42.70 | 4:33.39 | 223720 | 244233
Range status and errors
Selected range
Filename C:\EAC\Gothic Romance\Gothic Romance\Gothic Romance CD1.wav
Peak level 98.8 % Extraction speed 1.7 X Range quality 100.0 % Copy CRC 569178BB Copy OK
No errors occurred
AccurateRip summary
Track 1 cannot be verified as accurate (confidence 2) [C295E204], AccurateRip returned [35A0ED9F] (AR v2)Track 2 cannot be verified as accurate (confidence 2) [53554D1D], AccurateRip returned [076198D9] (AR v2)Track 3 cannot be verified as accurate (confidence 2) [7815E5FC], AccurateRip returned [336B4FAE] (AR v2)Track 4 cannot be verified as accurate (confidence 2) [D782F31A], AccurateRip returned [A2F33786] (AR v2)Track 5 cannot be verified as accurate (confidence 2) [316AFA51], AccurateRip returned [A2BC04CB] (AR v2)Track 6 cannot be verified as accurate (confidence 2) [76B26488], AccurateRip returned [B73ADD0D] (AR v2)Track 7 cannot be verified as accurate (confidence 2) [23064C5E], AccurateRip returned [8762DC85] (AR v2)Track 8 accurately ripped (confidence 1) [4D7C2AA4] (AR v2)Track 9 cannot be verified as accurate (confidence 2) [79138456], AccurateRip returned [82B89B55] (AR v2)Track 10 cannot be verified as accurate (confidence 2) [4C10F9B8], AccurateRip returned [CF8C2775] (AR v2)Track 11 cannot be verified as accurate (confidence 2) [1A0DA87F], AccurateRip returned [A1AA1D2E] (AR v2)
1 трек(и) скопированы точно10 трек(и) не удалось проверить на точность
Some tracks could not be verified as accurate
End of status report
---- CUETools DB Plugin V2.1.3
[CTDB TOCID: KRsyI2p3sfMQ8weVc5M0RNrHMqw-] found, Submit result: KRsyI2p3sfMQ8weVc5M0RNrHMqw- has been uploaded[72706983] (1/1) No match
==== Log checksum 98EA3DD572E59E55EF38DB365A317E1498AEA729F5ADE943F1543A162EB27342 ====

Лог создания рипа CD2

Exact Audio Copy V1.0 beta 3 from 29. August 2011
EAC extraction logfile from 8. December 2013, 3:13
Various Artists / Gothic Romance CD2
Used drive : ASUS BW-14D1XT Adapter: 2 ID: 0
Read mode : SecureUtilize accurate stream : YesDefeat audio cache : YesMake use of C2 pointers : No
Read offset correction : 6Overread into Lead-In and Lead-Out : NoFill up missing offset samples with silence : YesDelete leading and trailing silent blocks : NoNull samples used in CRC calculations : YesUsed interface : Native Win32 interface for Win NT & 2000
Used output format : User Defined EncoderSelected bitrate : 896 kBit/sQuality : HighAdd ID3 tag : NoCommand line compressor : C:\Program Files (x86)\Exact Audio Copy\CUETools\CUETools.FLACCL.cmd.exeAdditional command line options : -7 --verify %source% -o %dest%
TOC of the extracted CD
Track | Start | Length | Start sector | End sector --------------------------------------------------------- 1 | 0:00.00 | 2:43.52 | 0 | 12276 2 | 2:43.52 | 2:57.47 | 12277 | 25598 3 | 5:41.24 | 4:42.69 | 25599 | 46817 4 | 10:24.18 | 4:54.22 | 46818 | 68889 5 | 15:18.40 | 4:30.31 | 68890 | 89170 6 | 19:48.71 | 4:59.60 | 89171 | 111655 7 | 24:48.56 | 4:22.18 | 111656 | 131323 8 | 29:10.74 | 3:39.61 | 131324 | 147809 9 | 32:50.60 | 5:25.47 | 147810 | 172231 10 | 38:16.32 | 3:48.51 | 172232 | 189382 11 | 42:05.08 | 3:54.32 | 189383 | 206964 12 | 45:59.40 | 5:20.31 | 206965 | 230995
Range status and errors
Selected range
Filename C:\EAC\Gothic Romance\Gothic Romance\Gothic Romance CD2.wav
Peak level 98.8 % Extraction speed 1.7 X Range quality 99.9 % Copy CRC D1198E42 Copy OK
No errors occurred
AccurateRip summary
Track 1 cannot be verified as accurate (confidence 2) [ACF0D5B9], AccurateRip returned [54F78E58] (AR v2)Track 2 cannot be verified as accurate (confidence 2) [155C28CF], AccurateRip returned [70909205] (AR v2)Track 3 cannot be verified as accurate (confidence 2) [BBA9F1B8], AccurateRip returned [A0A9B039] (AR v2)Track 4 cannot be verified as accurate (confidence 2) [5C493827], AccurateRip returned [70323B31] (AR v2)Track 5 cannot be verified as accurate (confidence 2) [E381A8BA], AccurateRip returned [C83495F8] (AR v2)Track 6 cannot be verified as accurate (confidence 2) [1F9BFADD], AccurateRip returned [5D14C5E4] (AR v2)Track 7 cannot be verified as accurate (confidence 2) [18C7B5E6], AccurateRip returned [D5FB65FE] (AR v2)Track 8 cannot be verified as accurate (confidence 2) [083D0B44], AccurateRip returned [A503FA2F] (AR v2)Track 9 cannot be verified as accurate (confidence 2) [E31080C5], AccurateRip returned [3A576454] (AR v2)Track 10 cannot be verified as accurate (confidence 2) [4D5C96F5], AccurateRip returned [4498E52A] (AR v2)Track 11 cannot be verified as accurate (confidence 2) [7869371D], AccurateRip returned [A40BFACE] (AR v2)Track 12 cannot be verified as accurate (confidence 2) [D5FF9EBD], AccurateRip returned [41949FE6] (AR v2)
No tracks could be verified as accurateYou may have a different pressing from the one(s) in the database
End of status report
---- CUETools DB Plugin V2.1.3
[CTDB TOCID: 373jT631VhLHmqo0AX2e314F3tc-] disk not present in database, Submit result: 373jT631VhLHmqo0AX2e314F3tc- has been uploaded
==== Log checksum 0170D0E03B274D732591BCB38560A20474A630C4A969BF27D3F83B0165E763CC ====

Лог проверки качества CD1

-----------------------
DON'T MODIFY THIS FILE
-----------------------
PERFORMER: auCDtect Task Manager, ver. 1.6.0 RC1 build 1.6.0.1Copyright (c) 2008-2010 y-soft. All rights reservedhttp://y-soft.org
ANALYZER: auCDtect: CD records authenticity detector, version 0.8.2Copyright (c) 2004 Oleg Berngardt. All rights reserved.Copyright (c) 2004 Alexander Djourik. All rights reserved.
FILE: Gothic Romance CD1.flac Size: 407371565 Hash: 94A56BA01190133E09E4687734FE9CA7 Accuracy: -m0 Conclusion: CDDA 100% Signature: 0311EDCDF2ABE12CCC98E8CF17B575145077108C

Лог проверки качества CD2

-----------------------
DON'T MODIFY THIS FILE
-----------------------
PERFORMER: auCDtect Task Manager, ver. 1.6.0 RC1 build 1.6.0.1Copyright (c) 2008-2010 y-soft. All rights reservedhttp://y-soft.org
ANALYZER: auCDtect: CD records authenticity detector, version 0.8.2Copyright (c) 2004 Oleg Berngardt. All rights reserved.Copyright (c) 2004 Alexander Djourik. All rights reserved.
FILE: Gothic Romance CD2.flac Size: 383524911 Hash: 7341CA6D9951D2B013CFB9F7B4CC8317 Accuracy: -m0 Conclusion: CDDA 100% Signature: 6225421838E19D6D7915DEAAB17B48502925C368

Gothic Romance 2Лог создания рипа CD1

Exact Audio Copy V1.0 beta 3 from 29. August 2011
EAC extraction logfile from 8. December 2013, 4:54
Various Artists / Gothic Romance 2 CD1
Used drive : ASUS BW-14D1XT Adapter: 2 ID: 0
Read mode : SecureUtilize accurate stream : YesDefeat audio cache : YesMake use of C2 pointers : No
Read offset correction : 6Overread into Lead-In and Lead-Out : NoFill up missing offset samples with silence : YesDelete leading and trailing silent blocks : NoNull samples used in CRC calculations : YesUsed interface : Native Win32 interface for Win NT & 2000
Used output format : User Defined EncoderSelected bitrate : 896 kBit/sQuality : HighAdd ID3 tag : NoCommand line compressor : C:\Program Files (x86)\Exact Audio Copy\CUETools\CUETools.FLACCL.cmd.exeAdditional command line options : -7 --verify %source% -o %dest%
TOC of the extracted CD
Track | Start | Length | Start sector | End sector --------------------------------------------------------- 1 | 0:00.00 | 7:02.14 | 0 | 31663 2 | 7:02.14 | 4:35.30 | 31664 | 52318 3 | 11:37.44 | 3:59.15 | 52319 | 70258 4 | 15:36.59 | 6:58.48 | 70259 | 101656 5 | 22:35.32 | 4:24.23 | 101657 | 121479 6 | 26:59.55 | 3:36.26 | 121480 | 137705 7 | 30:36.06 | 4:43.10 | 137706 | 158940 8 | 35:19.16 | 5:10.68 | 158941 | 182258 9 | 40:30.09 | 5:19.51 | 182259 | 206234 10 | 45:49.60 | 3:41.43 | 206235 | 222852 11 | 49:31.28 | 4:27.17 | 222853 | 242894 12 | 53:58.45 | 6:43.17 | 242895 | 273136 13 | 60:41.62 | 3:49.73 | 273137 | 290384 14 | 64:31.60 | 4:38.62 | 290385 | 311296 15 | 69:10.47 | 3:48.43 | 311297 | 328439 16 | 72:59.15 | 4:20.42 | 328440 | 347981
Range status and errors
Selected range
Filename C:\EAC\Gothic Romance\Gothic Romance 2\Gothic Romance 2 CD1.wav
Peak level 98.8 % Extraction speed 2.1 X Range quality 100.0 % Copy CRC EF26780B Copy OK
No errors occurred
AccurateRip summary
Track 1 not present in databaseTrack 2 not present in databaseTrack 3 not present in databaseTrack 4 not present in databaseTrack 5 not present in databaseTrack 6 not present in databaseTrack 7 not present in databaseTrack 8 not present in databaseTrack 9 not present in databaseTrack 10 not present in databaseTrack 11 not present in databaseTrack 12 not present in databaseTrack 13 not present in databaseTrack 14 not present in databaseTrack 15 not present in databaseTrack 16 not present in database
None of the tracks are present in the AccurateRip database
End of status report
---- CUETools DB Plugin V2.1.3
[CTDB TOCID: HHv4sG_07YQJV6XiimQQVLOaNRg-] disk not present in database, Submit result: HHv4sG_07YQJV6XiimQQVLOaNRg- has been uploaded
==== Log checksum C7729053490E59E039FBA6E3FA93B845AE4D32F3E59D4DDFB838D5933CEDB8B3 ====

Лог создания рипа CD2

Exact Audio Copy V1.0 beta 3 from 29. August 2011
EAC extraction logfile from 8. December 2013, 13:14
Various Artists / Gothic Romance 2 CD2
Used drive : ASUS BW-14D1XT Adapter: 2 ID: 0
Read mode : SecureUtilize accurate stream : YesDefeat audio cache : YesMake use of C2 pointers : No
Read offset correction : 6Overread into Lead-In and Lead-Out : NoFill up missing offset samples with silence : YesDelete leading and trailing silent blocks : NoNull samples used in CRC calculations : YesUsed interface : Native Win32 interface for Win NT & 2000
Used output format : User Defined EncoderSelected bitrate : 896 kBit/sQuality : HighAdd ID3 tag : NoCommand line compressor : C:\Program Files (x86)\Exact Audio Copy\CUETools\CUETools.FLACCL.cmd.exeAdditional command line options : -7 --verify %source% -o %dest%
TOC of the extracted CD
Track | Start | Length | Start sector | End sector --------------------------------------------------------- 1 | 0:00.00 | 4:20.10 | 0 | 19509 2 | 4:20.10 | 4:08.21 | 19510 | 38130 3 | 8:28.31 | 3:33.30 | 38131 | 54135 4 | 12:01.61 | 3:37.74 | 54136 | 70484 5 | 15:39.60 | 5:55.27 | 70485 | 97136 6 | 21:35.12 | 3:29.55 | 97137 | 112866 7 | 25:04.67 | 3:41.67 | 112867 | 129508 8 | 28:46.59 | 4:04.30 | 129509 | 147838 9 | 32:51.14 | 4:42.29 | 147839 | 169017 10 | 37:33.43 | 6:54.54 | 169018 | 200121 11 | 44:28.22 | 3:42.53 | 200122 | 216824 12 | 48:11.00 | 4:51.04 | 216825 | 238653 13 | 53:02.04 | 6:12.43 | 238654 | 266596 14 | 59:14.47 | 4:49.61 | 266597 | 288332 15 | 64:04.33 | 6:21.63 | 288333 | 316970 16 | 70:26.21 | 4:12.07 | 316971 | 335877
Range status and errors
Selected range
Filename C:\EAC\Gothic Romance\Gothic Romance 2\Gothic Romance 2 CD2.wav
Peak level 98.8 % Extraction speed 7.7 X Range quality 99.9 % Copy CRC 644BC01A Copy OK
No errors occurred
AccurateRip summary
Track 1 not present in databaseTrack 2 not present in databaseTrack 3 not present in databaseTrack 4 not present in databaseTrack 5 not present in databaseTrack 6 not present in databaseTrack 7 not present in databaseTrack 8 not present in databaseTrack 9 not present in databaseTrack 10 not present in databaseTrack 11 not present in databaseTrack 12 not present in databaseTrack 13 not present in databaseTrack 14 not present in databaseTrack 15 not present in databaseTrack 16 not present in database
None of the tracks are present in the AccurateRip database
End of status report
---- CUETools DB Plugin V2.1.3
[CTDB TOCID: QLZCkjmRmQhRR7TgDai39PEJaTc-] disk not present in database, Submit result: QLZCkjmRmQhRR7TgDai39PEJaTc- has been uploaded
==== Log checksum 35F822C59F51BB086B6D152C4B417AE4AF82248D5A40CE806838E1B5CEDC771A ====

Лог проверки качества CD1

-----------------------
DON'T MODIFY THIS FILE
-----------------------
PERFORMER: auCDtect Task Manager, ver. 1.6.0 RC1 build 1.6.0.1Copyright (c) 2008-2010 y-soft. All rights reservedhttp://y-soft.org
ANALYZER: auCDtect: CD records authenticity detector, version 0.8.2Copyright (c) 2004 Oleg Berngardt. All rights reserved.Copyright (c) 2004 Alexander Djourik. All rights reserved.
FILE: Gothic Romance 2 CD1.flac Size: 560343676 Hash: 65A35987F0C45991E955EBD47E7ADDF4 Accuracy: -m0 Conclusion: CDDA 100% Signature: B21E0F5B80C8339899C870F7A389F7C0C35C448C

Лог проверки качества CD2

-----------------------
DON'T MODIFY THIS FILE
-----------------------
PERFORMER: auCDtect Task Manager, ver. 1.6.0 RC1 build 1.6.0.1Copyright (c) 2008-2010 y-soft. All rights reservedhttp://y-soft.org
ANALYZER: auCDtect: CD records authenticity detector, version 0.8.2Copyright (c) 2004 Oleg Berngardt. All rights reserved.Copyright (c) 2004 Alexander Djourik. All rights reserved.
FILE: Gothic Romance 2 CD2.flac Size: 517679527 Hash: 260CC093D01C868B80BEC926E51935B7 Accuracy: -m0 Conclusion: CDDA 99% Signature: E46065B6756EC0FBA0DC62A2D609FE6F9EEDE625

Gothic Romance 3Лог создания рипа CD1

Exact Audio Copy V1.0 beta 3 from 29. August 2011
EAC extraction logfile from 8. December 2013, 13:38
Various Artists / Gothic Romance 3 CD1
Used drive : ASUS BW-14D1XT Adapter: 2 ID: 0
Read mode : SecureUtilize accurate stream : YesDefeat audio cache : YesMake use of C2 pointers : No
Read offset correction : 6Overread into Lead-In and Lead-Out : NoFill up missing offset samples with silence : YesDelete leading and trailing silent blocks : NoNull samples used in CRC calculations : YesUsed interface : Native Win32 interface for Win NT & 2000
Used output format : User Defined EncoderSelected bitrate : 896 kBit/sQuality : HighAdd ID3 tag : NoCommand line compressor : C:\Program Files (x86)\Exact Audio Copy\CUETools\CUETools.FLACCL.cmd.exeAdditional command line options : -7 --verify %source% -o %dest%
TOC of the extracted CD
Track | Start | Length | Start sector | End sector --------------------------------------------------------- 1 | 0:00.00 | 4:18.44 | 0 | 19393 2 | 4:18.44 | 4:05.43 | 19394 | 37811 3 | 8:24.12 | 3:02.37 | 37812 | 51498 4 | 11:26.49 | 5:40.03 | 51499 | 77001 5 | 17:06.52 | 4:03.72 | 77002 | 95298 6 | 21:10.49 | 3:13.21 | 95299 | 109794 7 | 24:23.70 | 4:37.09 | 109795 | 130578 8 | 29:01.04 | 3:06.42 | 130579 | 144570 9 | 32:07.46 | 7:33.05 | 144571 | 178550 10 | 39:40.51 | 3:56.59 | 178551 | 196309 11 | 43:37.35 | 5:16.01 | 196310 | 220010 12 | 48:53.36 | 2:53.74 | 220011 | 233059 13 | 51:47.35 | 5:01.45 | 233060 | 255679 14 | 56:49.05 | 7:30.42 | 255680 | 289471 15 | 64:19.47 | 4:23.27 | 289472 | 309223 16 | 68:42.74 | 8:04.24 | 309224 | 345547
Range status and errors
Selected range
Filename C:\EAC\Gothic Romance\Gothic Romance 3\Gothic Romance 3 CD1.wav
Peak level 98.7 % Extraction speed 7.8 X Range quality 100.0 % Copy CRC 3C3685DF Copy OK
No errors occurred
AccurateRip summary
Track 1 not present in databaseTrack 2 not present in databaseTrack 3 not present in databaseTrack 4 not present in databaseTrack 5 not present in databaseTrack 6 not present in databaseTrack 7 not present in databaseTrack 8 not present in databaseTrack 9 not present in databaseTrack 10 not present in databaseTrack 11 not present in databaseTrack 12 not present in databaseTrack 13 not present in databaseTrack 14 not present in databaseTrack 15 not present in databaseTrack 16 not present in database
None of the tracks are present in the AccurateRip database
End of status report
---- CUETools DB Plugin V2.1.3
[CTDB TOCID: 80fY2D0Sa099MRpXO0Q4wmsdOZo-] found, Submit result: 80fY2D0Sa099MRpXO0Q4wmsdOZo- has been uploaded[ba3833a4] (1/1) No match
==== Log checksum D27B27DC0C74CE6F5012B4BD16F21C051CB212A6B1EFAEC39049C2F3461F4925 ====

Лог создания рипа CD2

Exact Audio Copy V1.0 beta 3 from 29. August 2011
EAC extraction logfile from 8. December 2013, 14:02
Various Artists / Gothic Romance 3 CD2
Used drive : ASUS BW-14D1XT Adapter: 2 ID: 0
Read mode : SecureUtilize accurate stream : YesDefeat audio cache : YesMake use of C2 pointers : No
Read offset correction : 6Overread into Lead-In and Lead-Out : NoFill up missing offset samples with silence : YesDelete leading and trailing silent blocks : NoNull samples used in CRC calculations : YesUsed interface : Native Win32 interface for Win NT & 2000
Used output format : User Defined EncoderSelected bitrate : 896 kBit/sQuality : HighAdd ID3 tag : NoCommand line compressor : C:\Program Files (x86)\Exact Audio Copy\CUETools\CUETools.FLACCL.cmd.exeAdditional command line options : -7 --verify %source% -o %dest%
TOC of the extracted CD
Track | Start | Length | Start sector | End sector --------------------------------------------------------- 1 | 0:00.00 | 6:46.52 | 0 | 30501 2 | 6:46.52 | 4:27.33 | 30502 | 50559 3 | 11:14.10 | 4:41.38 | 50560 | 71672 4 | 15:55.48 | 4:10.56 | 71673 | 90478 5 | 20:06.29 | 5:24.38 | 90479 | 114816 6 | 25:30.67 | 5:39.28 | 114817 | 140269 7 | 31:10.20 | 3:40.48 | 140270 | 156817 8 | 34:50.68 | 5:36.48 | 156818 | 182065 9 | 40:27.41 | 3:50.18 | 182066 | 199333 10 | 44:17.59 | 4:01.49 | 199334 | 217457 11 | 48:19.33 | 5:20.20 | 217458 | 241477 12 | 53:39.53 | 3:35.61 | 241478 | 257663 13 | 57:15.39 | 4:10.38 | 257664 | 276451 14 | 61:26.02 | 6:11.46 | 276452 | 304322 15 | 67:37.48 | 5:11.44 | 304323 | 327691 16 | 72:49.17 | 4:29.44 | 327692 | 347910
Range status and errors
Selected range
Filename C:\EAC\Gothic Romance\Gothic Romance 3\Gothic Romance 3 CD2.wav
Peak level 98.7 % Extraction speed 7.8 X Range quality 100.0 % Copy CRC BA56D934 Copy OK
No errors occurred
AccurateRip summary
Track 1 not present in databaseTrack 2 not present in databaseTrack 3 not present in databaseTrack 4 not present in databaseTrack 5 not present in databaseTrack 6 not present in databaseTrack 7 not present in databaseTrack 8 not present in databaseTrack 9 not present in databaseTrack 10 not present in databaseTrack 11 not present in databaseTrack 12 not present in databaseTrack 13 not present in databaseTrack 14 not present in databaseTrack 15 not present in databaseTrack 16 not present in database
None of the tracks are present in the AccurateRip database
End of status report
---- CUETools DB Plugin V2.1.3
[CTDB TOCID: bQxKCfwjzdLOY6AX9BPXJ2F2D6I-] found, Submit result: bQxKCfwjzdLOY6AX9BPXJ2F2D6I- has been uploaded[f4d4065f] (1/1) No match
==== Log checksum 159AF895C791BCE0D4000F186452A47C55E653D4F244B312C5A11FA045F822FE ====

Лог проверки качества CD1

-----------------------
DON'T MODIFY THIS FILE
-----------------------
PERFORMER: auCDtect Task Manager, ver. 1.6.0 RC1 build 1.6.0.1Copyright (c) 2008-2010 y-soft. All rights reservedhttp://y-soft.org
ANALYZER: auCDtect: CD records authenticity detector, version 0.8.2Copyright (c) 2004 Oleg Berngardt. All rights reserved.Copyright (c) 2004 Alexander Djourik. All rights reserved.
FILE: Gothic Romance 3 CD1.flac Size: 544109311 Hash: 7F6EC2254608D35304F41786F6471728 Accuracy: -m0 Conclusion: CDDA 100% Signature: A3490DABEABE33AFC1CCBA97CE9F9D6AC3115665

Лог проверки качества CD2

-----------------------
DON'T MODIFY THIS FILE
-----------------------
PERFORMER: auCDtect Task Manager, ver. 1.6.0 RC1 build 1.6.0.1Copyright (c) 2008-2010 y-soft. All rights reservedhttp://y-soft.org
ANALYZER: auCDtect: CD records authenticity detector, version 0.8.2Copyright (c) 2004 Oleg Berngardt. All rights reserved.Copyright (c) 2004 Alexander Djourik. All rights reserved.
FILE: Gothic Romance 3 CD2.flac Size: 555253874 Hash: A897860AACC25D9B1FF04CA1A0EE1EF7 Accuracy: -m0 Conclusion: CDDA 100% Signature: 3A967AF70B602C0C0909A02317538786C1EB4D39

Gothic Romance 4Лог создания рипа CD1

Exact Audio Copy V1.0 beta 3 from 29. August 2011
EAC extraction logfile from 8. December 2013, 14:21
Various Artists / Gothic Romance 4 CD1
Used drive : ASUS BW-14D1XT Adapter: 2 ID: 0
Read mode : SecureUtilize accurate stream : YesDefeat audio cache : YesMake use of C2 pointers : No
Read offset correction : 6Overread into Lead-In and Lead-Out : NoFill up missing offset samples with silence : YesDelete leading and trailing silent blocks : NoNull samples used in CRC calculations : YesUsed interface : Native Win32 interface for Win NT & 2000
Used output format : User Defined EncoderSelected bitrate : 896 kBit/sQuality : HighAdd ID3 tag : NoCommand line compressor : C:\Program Files (x86)\Exact Audio Copy\CUETools\CUETools.FLACCL.cmd.exeAdditional command line options : -7 --verify %source% -o %dest%
TOC of the extracted CD
Track | Start | Length | Start sector | End sector --------------------------------------------------------- 1 | 0:00.00 | 4:02.59 | 0 | 18208 2 | 4:02.59 | 5:11.07 | 18209 | 41540 3 | 9:13.66 | 6:29.36 | 41541 | 70751 4 | 15:43.27 | 3:13.71 | 70752 | 85297 5 | 18:57.23 | 3:44.55 | 85298 | 102152 6 | 22:42.03 | 5:01.68 | 102153 | 124795 7 | 27:43.71 | 5:57.16 | 124796 | 151586 8 | 33:41.12 | 4:46.69 | 151587 | 173105 9 | 38:28.06 | 6:08.16 | 173106 | 200721 10 | 44:36.22 | 6:16.29 | 200722 | 228950 11 | 50:52.51 | 4:09.54 | 228951 | 247679 12 | 55:02.30 | 5:28.12 | 247680 | 272291 13 | 60:30.42 | 3:58.38 | 272292 | 290179 14 | 64:29.05 | 4:00.12 | 290180 | 308191 15 | 68:29.17 | 7:10.02 | 308192 | 340443
Range status and errors
Selected range
Filename C:\EAC\Gothic Romance\Gothic Romance 4\Gothic Romance 4 CD1.wav
Peak level 98.8 % Extraction speed 7.8 X Range quality 100.0 % Copy CRC ED709F2C Copy OK
No errors occurred
AccurateRip summary
Track 1 accurately ripped (confidence 1) [1CDCFE0E] (AR v2)Track 2 accurately ripped (confidence 1) [1A292271] (AR v2)Track 3 accurately ripped (confidence 1) [DAA265A0] (AR v2)Track 4 accurately ripped (confidence 1) [29085CED] (AR v2)Track 5 accurately ripped (confidence 1) [62632A9D] (AR v2)Track 6 accurately ripped (confidence 1) [3E2D471F] (AR v2)Track 7 accurately ripped (confidence 1) [30980A93] (AR v2)Track 8 accurately ripped (confidence 1) [1F0EC823] (AR v2)Track 9 accurately ripped (confidence 1) [C481C56B] (AR v2)Track 10 accurately ripped (confidence 1) [E02B9D93] (AR v2)Track 11 accurately ripped (confidence 1) [4CF3DF73] (AR v2)Track 12 accurately ripped (confidence 1) [587275B0] (AR v2)Track 13 accurately ripped (confidence 1) [71C735EB] (AR v2)Track 14 accurately ripped (confidence 1) [AE8D291F] (AR v2)Track 15 not present in database
14 трек(и) скопированы точно 1 трек(и) не содержатся в базе AccurateRip
Some tracks could not be verified as accurate
End of status report
---- CUETools DB Plugin V2.1.3
[CTDB TOCID: TA_e7heUWCaxGWMvGJ_4jimotX0-] disk not present in database, Submit result: TA_e7heUWCaxGWMvGJ_4jimotX0- has been uploaded
==== Log checksum E7BC9C6A20324F282B42D678F000E0F7090B364CCA598802BD2F084BD7EBD48F ====

Лог создания рипа CD2

Exact Audio Copy V1.0 beta 3 from 29. August 2011
EAC extraction logfile from 8. December 2013, 14:39
Various Artists / Gothic Romance 4 CD2
Used drive : ASUS BW-14D1XT Adapter: 2 ID: 0
Read mode : SecureUtilize accurate stream : YesDefeat audio cache : YesMake use of C2 pointers : No
Read offset correction : 6Overread into Lead-In and Lead-Out : NoFill up missing offset samples with silence : YesDelete leading and trailing silent blocks : NoNull samples used in CRC calculations : YesUsed interface : Native Win32 interface for Win NT & 2000
Used output format : User Defined EncoderSelected bitrate : 896 kBit/sQuality : HighAdd ID3 tag : NoCommand line compressor : C:\Program Files (x86)\Exact Audio Copy\CUETools\CUETools.FLACCL.cmd.exeAdditional command line options : -7 --verify %source% -o %dest%
TOC of the extracted CD
Track | Start | Length | Start sector | End sector --------------------------------------------------------- 1 | 0:00.00 | 4:14.40 | 0 | 19089 2 | 4:14.40 | 6:34.00 | 19090 | 48639 3 | 10:48.40 | 3:26.37 | 48640 | 64126 4 | 14:15.02 | 5:33.18 | 64127 | 89119 5 | 19:48.20 | 3:47.39 | 89120 | 106183 6 | 23:35.59 | 6:28.45 | 106184 | 135328 7 | 30:04.29 | 7:19.40 | 135329 | 168293 8 | 37:23.69 | 4:37.42 | 168294 | 189110 9 | 42:01.36 | 7:07.71 | 189111 | 221206 10 | 49:09.32 | 5:55.28 | 221207 | 247859 11 | 55:04.60 | 7:06.42 | 247860 | 279851 12 | 62:11.27 | 5:15.33 | 279852 | 303509 13 | 67:26.60 | 4:26.23 | 303510 | 323482 14 | 71:53.08 | 3:31.59 | 323483 | 339366 15 | 75:24.67 | 3:04.43 | 339367 | 353209
Range status and errors
Selected range
Filename C:\EAC\Gothic Romance\Gothic Romance 4\Gothic Romance 4 CD2.wav
Peak level 98.8 % Extraction speed 7.7 X Range quality 100.0 % Copy CRC 0AABD8DF Copy OK
No errors occurred
AccurateRip summary
Track 1 not present in databaseTrack 2 not present in databaseTrack 3 not present in databaseTrack 4 not present in databaseTrack 5 not present in databaseTrack 6 not present in databaseTrack 7 not present in databaseTrack 8 not present in databaseTrack 9 not present in databaseTrack 10 not present in databaseTrack 11 not present in databaseTrack 12 not present in databaseTrack 13 not present in databaseTrack 14 not present in databaseTrack 15 not present in database
None of the tracks are present in the AccurateRip database
End of status report
---- CUETools DB Plugin V2.1.3
[CTDB TOCID: o7lcTsrl9ZschuNSyMhnI6BQxTg-] disk not present in database, Submit result: o7lcTsrl9ZschuNSyMhnI6BQxTg- has been uploaded
==== Log checksum 12A3FDE96EBAD8B67C222475C8BF405E08B12B4AE0DD8F05A777FB92AA47F027 ====

Лог проверки качества CD1

-----------------------
DON'T MODIFY THIS FILE
-----------------------
PERFORMER: auCDtect Task Manager, ver. 1.6.0 RC1 build 1.6.0.1Copyright (c) 2008-2010 y-soft. All rights reservedhttp://y-soft.org
ANALYZER: auCDtect: CD records authenticity detector, version 0.8.2Copyright (c) 2004 Oleg Berngardt. All rights reserved.Copyright (c) 2004 Alexander Djourik. All rights reserved.
FILE: Gothic Romance 4 CD1.flac Size: 544288063 Hash: F280E3ACA7FD8EC7325E259E857E8611 Accuracy: -m0 Conclusion: CDDA 100% Signature: A75BB35B51D3DB711D41032F221C78D379950909

Лог проверки качества CD2

-----------------------
DON'T MODIFY THIS FILE
-----------------------
PERFORMER: auCDtect Task Manager, ver. 1.6.0 RC1 build 1.6.0.1Copyright (c) 2008-2010 y-soft. All rights reservedhttp://y-soft.org
ANALYZER: auCDtect: CD records authenticity detector, version 0.8.2Copyright (c) 2004 Oleg Berngardt. All rights reserved.Copyright (c) 2004 Alexander Djourik. All rights reserved.
FILE: Gothic Romance 4 CD2.flac Size: 563398219 Hash: A4F91AED0C133381706FD98856CAFF72 Accuracy: -m0 Conclusion: CDDA 100% Signature: C9C72D20E8D4AB92E2C9180B53A534A9E4690EC5

Gothic Romance 5Лог создания рипа CD1

Exact Audio Copy V1.0 beta 3 from 29. August 2011
EAC extraction logfile from 8. December 2013, 15:06
Various Artists / Gothic Romance 5 CD1
Used drive : ASUS BW-14D1XT Adapter: 2 ID: 0
Read mode : SecureUtilize accurate stream : YesDefeat audio cache : YesMake use of C2 pointers : No
Read offset correction : 6Overread into Lead-In and Lead-Out : NoFill up missing offset samples with silence : YesDelete leading and trailing silent blocks : NoNull samples used in CRC calculations : YesUsed interface : Native Win32 interface for Win NT & 2000
Used output format : User Defined EncoderSelected bitrate : 896 kBit/sQuality : HighAdd ID3 tag : NoCommand line compressor : C:\Program Files (x86)\Exact Audio Copy\CUETools\CUETools.FLACCL.cmd.exeAdditional command line options : -7 --verify %source% -o %dest%
TOC of the extracted CD
Track | Start | Length | Start sector | End sector --------------------------------------------------------- 1 | 0:00.00 | 3:39.60 | 0 | 16484 2 | 3:39.60 | 4:28.62 | 16485 | 36646 3 | 8:08.47 | 4:14.58 | 36647 | 55754 4 | 12:23.30 | 6:10.56 | 55755 | 83560 5 | 18:34.11 | 4:11.49 | 83561 | 102434 6 | 22:45.60 | 4:26.44 | 102435 | 122428 7 | 27:12.29 | 3:23.51 | 122429 | 137704 8 | 30:36.05 | 3:56.70 | 137705 | 155474 9 | 34:33.00 | 4:31.00 | 155475 | 175799 10 | 39:04.00 | 5:01.46 | 175800 | 198420 11 | 44:05.46 | 4:31.52 | 198421 | 218797 12 | 48:37.23 | 4:58.55 | 218798 | 241202 13 | 53:36.03 | 5:11.41 | 241203 | 264568 14 | 58:47.44 | 4:22.30 | 264569 | 284248 15 | 63:09.74 | 5:02.36 | 284249 | 306934 16 | 68:12.35 | 4:06.36 | 306935 | 325420 17 | 72:18.71 | 4:50.74 | 325421 | 347244
Range status and errors
Selected range
Filename C:\EAC\Gothic Romance\Gothic Romance 5\Gothic Romance 5 CD1.wav
Peak level 98.8 % Extraction speed 4.6 X Range quality 99.9 % Copy CRC 89C489EB Copy OK
No errors occurred
AccurateRip summary
Track 1 not present in databaseTrack 2 not present in databaseTrack 3 not present in databaseTrack 4 not present in databaseTrack 5 not present in databaseTrack 6 not present in databaseTrack 7 not present in databaseTrack 8 not present in databaseTrack 9 not present in databaseTrack 10 not present in databaseTrack 11 not present in databaseTrack 12 not present in databaseTrack 13 not present in databaseTrack 14 not present in databaseTrack 15 not present in databaseTrack 16 not present in databaseTrack 17 not present in database
None of the tracks are present in the AccurateRip database
End of status report
---- CUETools DB Plugin V2.1.3
[CTDB TOCID: hFDyYYW_ptKC0UBgKCc5D249jbg-] found, Submit result: hFDyYYW_ptKC0UBgKCc5D249jbg- has been uploaded[59a3d487] (1/1) No match
==== Log checksum 753E46262EA81A476EE11CC05F13A3BDD2F88118193BBFFB5A4C5F42E097980E ====

Лог создания рипа CD2

Exact Audio Copy V1.0 beta 3 from 29. August 2011
EAC extraction logfile from 8. December 2013, 16:00
Various Artists / Gothic Romance 5 CD2
Used drive : ASUS BW-14D1XT Adapter: 2 ID: 0
Read mode : SecureUtilize accurate stream : YesDefeat audio cache : YesMake use of C2 pointers : No
Read offset correction : 6Overread into Lead-In and Lead-Out : NoFill up missing offset samples with silence : YesDelete leading and trailing silent blocks : NoNull samples used in CRC calculations : YesUsed interface : Native Win32 interface for Win NT & 2000
Used output format : User Defined EncoderSelected bitrate : 896 kBit/sQuality : HighAdd ID3 tag : NoCommand line compressor : C:\Program Files (x86)\Exact Audio Copy\CUETools\CUETools.FLACCL.cmd.exeAdditional command line options : -7 --verify %source% -o %dest%
TOC of the extracted CD
Track | Start | Length | Start sector | End sector --------------------------------------------------------- 1 | 0:00.00 | 4:51.42 | 0 | 21866 2 | 4:51.42 | 3:41.45 | 21867 | 38486 3 | 8:33.12 | 4:42.18 | 38487 | 59654 4 | 13:15.30 | 4:16.38 | 59655 | 78892 5 | 17:31.68 | 5:13.59 | 78893 | 102426 6 | 22:45.52 | 4:55.72 | 102427 | 124623 7 | 27:41.49 | 6:15.28 | 124624 | 152776 8 | 33:57.02 | 4:15.36 | 152777 | 171937 9 | 38:12.38 | 5:06.23 | 171938 | 194910 10 | 43:18.61 | 4:58.23 | 194911 | 217283 11 | 48:17.09 | 4:00.55 | 217284 | 235338 12 | 52:17.64 | 4:03.67 | 235339 | 253630 13 | 56:21.56 | 4:10.66 | 253631 | 272446 14 | 60:32.47 | 4:47.12 | 272447 | 293983 15 | 65:19.59 | 3:53.64 | 293984 | 311522 16 | 69:13.48 | 3:56.13 | 311523 | 329235 17 | 73:09.61 | 3:23.72 | 329236 | 344532
Range status and errors
Selected range
Filename C:\EAC\Gothic Romance\Gothic Romance 5\Gothic Romance 5 CD2.wav
Peak level 98.8 % Extraction speed 7.5 X Range quality 100.0 % Copy CRC 75E65E96 Copy OK
No errors occurred
AccurateRip summary
Track 1 accurately ripped (confidence 1) [0482E0DA] (AR v2)Track 2 accurately ripped (confidence 1) [B76D664B] (AR v2)Track 3 accurately ripped (confidence 1) [18D7A756] (AR v2)Track 4 accurately ripped (confidence 1) [6F89DB0B] (AR v2)Track 5 accurately ripped (confidence 1) [74EB9958] (AR v2)Track 6 accurately ripped (confidence 1) [E9E1EB43] (AR v2)Track 7 accurately ripped (confidence 1) [29740274] (AR v2)Track 8 accurately ripped (confidence 1) [2092407B] (AR v2)Track 9 accurately ripped (confidence 1) [0965DBD7] (AR v2)Track 10 accurately ripped (confidence 1) [8BC1AD30] (AR v2)Track 11 accurately ripped (confidence 1) [D60A9E79] (AR v2)Track 12 accurately ripped (confidence 1) [9C90F5F4] (AR v2)Track 13 accurately ripped (confidence 1) [BCA165B9] (AR v2)Track 14 accurately ripped (confidence 1) [5D60BC22] (AR v2)Track 15 not present in databaseTrack 16 accurately ripped (confidence 1) [A068783B] (AR v2)Track 17 accurately ripped (confidence 1) [40446357] (AR v2)
16 трек(и) скопированы точно 1 трек(и) не содержатся в базе AccurateRip
Some tracks could not be verified as accurate
End of status report
---- CUETools DB Plugin V2.1.3
[CTDB TOCID: PDEwA2iSlv0MQQFHiIH8SKDTWd4-] found, Submit result: PDEwA2iSlv0MQQFHiIH8SKDTWd4- has been confirmed[13f15eef] (1/1) Accurately ripped
==== Log checksum 13861F4485EDA8A03BE5F52E8ACC939ED485A7DEB5B079F0129FA2A1C8F283E0 ====

Лог проверки качества CD1

-----------------------
DON'T MODIFY THIS FILE
-----------------------
PERFORMER: auCDtect Task Manager, ver. 1.6.0 RC1 build 1.6.0.1Copyright (c) 2008-2010 y-soft. All rights reservedhttp://y-soft.org
ANALYZER: auCDtect: CD records authenticity detector, version 0.8.2Copyright (c) 2004 Oleg Berngardt. All rights reserved.Copyright (c) 2004 Alexander Djourik. All rights reserved.
FILE: Gothic Romance 5 CD1.flac Size: 550212732 Hash: 3D4F256E1A9B48FC5821088CA06E75D9 Accuracy: -m0 Conclusion: CDDA 100% Signature: A80C1E160867A1404AC322594772CED41B43729B

Лог проверки качества CD2

-----------------------
DON'T MODIFY THIS FILE
-----------------------
PERFORMER: auCDtect Task Manager, ver. 1.6.0 RC1 build 1.6.0.1Copyright (c) 2008-2010 y-soft. All rights reservedhttp://y-soft.org
ANALYZER: auCDtect: CD records authenticity detector, version 0.8.2Copyright (c) 2004 Oleg Berngardt. All rights reserved.Copyright (c) 2004 Alexander Djourik. All rights reserved.
FILE: Gothic Romance 5 CD2.flac Size: 536701367 Hash: E7F30B50305B37B587656C635DA144EC Accuracy: -m0 Conclusion: CDDA 100% Signature: 33FC9D757D89EF9792E7B9E255E1A8E9E21AFE2C

Gothic Romance 6Лог создания рипа CD1

Exact Audio Copy V1.0 beta 3 from 29. August 2011
EAC extraction logfile from 8. December 2013, 16:32
Various Artists / Gothic Romance 6 CD1
Used drive : ASUS BW-14D1XT Adapter: 2 ID: 0
Read mode : SecureUtilize accurate stream : YesDefeat audio cache : YesMake use of C2 pointers : No
Read offset correction : 6Overread into Lead-In and Lead-Out : NoFill up missing offset samples with silence : YesDelete leading and trailing silent blocks : NoNull samples used in CRC calculations : YesUsed interface : Native Win32 interface for Win NT & 2000
Used output format : User Defined EncoderSelected bitrate : 896 kBit/sQuality : HighAdd ID3 tag : NoCommand line compressor : C:\Program Files (x86)\Exact Audio Copy\CUETools\CUETools.FLACCL.cmd.exeAdditional command line options : -7 --verify %source% -o %dest%
TOC of the extracted CD
Track | Start | Length | Start sector | End sector --------------------------------------------------------- 1 | 0:00.00 | 4:24.39 | 0 | 19838 2 | 4:24.39 | 5:53.31 | 19839 | 46344 3 | 10:17.70 | 3:48.23 | 46345 | 63467 4 | 14:06.18 | 4:19.53 | 63468 | 82945 5 | 18:25.71 | 4:34.40 | 82946 | 103535 6 | 23:00.36 | 5:01.31 | 103536 | 126141 7 | 28:01.67 | 5:23.55 | 126142 | 150421 8 | 33:25.47 | 3:46.54 | 150422 | 167425 9 | 37:12.26 | 3:50.24 | 167426 | 184699 10 | 41:02.50 | 3:49.20 | 184700 | 201894 11 | 44:51.70 | 3:37.26 | 201895 | 218195 12 | 48:29.21 | 4:06.51 | 218196 | 236696 13 | 52:35.72 | 5:02.31 | 236697 | 259377 14 | 57:38.28 | 5:16.24 | 259378 | 283101 15 | 62:54.52 | 4:02.74 | 283102 | 301325 16 | 66:57.51 | 6:18.40 | 301326 | 329715
Range status and errors
Selected range
Filename C:\EAC\Gothic Romance\Gothic Romance 6\Gothic Romance 6 CD1.wav
Peak level 98.8 % Extraction speed 3.8 X Range quality 100.0 % Copy CRC A54C48F1 Copy OK
No errors occurred
AccurateRip summary
Track 1 not present in databaseTrack 2 not present in databaseTrack 3 not present in databaseTrack 4 not present in databaseTrack 5 not present in databaseTrack 6 not present in databaseTrack 7 not present in databaseTrack 8 not present in databaseTrack 9 not present in databaseTrack 10 not present in databaseTrack 11 not present in databaseTrack 12 not present in databaseTrack 13 not present in databaseTrack 14 not present in databaseTrack 15 not present in databaseTrack 16 not present in database
None of the tracks are present in the AccurateRip database
End of status report
---- CUETools DB Plugin V2.1.3
[CTDB TOCID: SOlB12ln9HbbnWFage3Ck7O9zMQ-] disk not present in database, Submit result: SOlB12ln9HbbnWFage3Ck7O9zMQ- has been uploaded
==== Log checksum C5BF3519335D9E6C3304EFA8D4163681DE222F6A1EEF2299ED2C5B336ABCABC9 ====

Лог создания рипа CD2

Exact Audio Copy V1.0 beta 3 from 29. August 2011
EAC extraction logfile from 8. December 2013, 17:17
Various Artists / Gothic Romance 6 CD2
Used drive : ASUS BW-14D1XT Adapter: 2 ID: 0
Read mode : SecureUtilize accurate stream : YesDefeat audio cache : YesMake use of C2 pointers : No
Read offset correction : 6Overread into Lead-In and Lead-Out : NoFill up missing offset samples with silence : YesDelete leading and trailing silent blocks : NoNull samples used in CRC calculations : YesUsed interface : Native Win32 interface for Win NT & 2000
Used output format : User Defined EncoderSelected bitrate : 896 kBit/sQuality : HighAdd ID3 tag : NoCommand line compressor : C:\Program Files (x86)\Exact Audio Copy\CUETools\CUETools.FLACCL.cmd.exeAdditional command line options : -7 --verify %source% -o %dest%
TOC of the extracted CD
Track | Start | Length | Start sector | End sector --------------------------------------------------------- 1 | 0:00.00 | 4:33.17 | 0 | 20491 2 | 4:33.17 | 4:10.61 | 20492 | 39302 3 | 8:44.03 | 5:39.44 | 39303 | 64771 4 | 14:23.47 | 5:19.18 | 64772 | 88714 5 | 19:42.65 | 4:09.36 | 88715 | 107425 6 | 23:52.26 | 3:23.42 | 107426 | 122692 7 | 27:15.68 | 5:52.73 | 122693 | 149165 8 | 33:08.66 | 4:29.18 | 149166 | 169358 9 | 37:38.09 | 2:56.09 | 169359 | 182567 10 | 40:34.18 | 5:18.06 | 182568 | 206423 11 | 45:52.24 | 4:39.58 | 206424 | 227406 12 | 50:32.07 | 4:58.20 | 227407 | 249776 13 | 55:30.27 | 5:55.44 | 249777 | 276445 14 | 61:25.71 | 4:48.39 | 276446 | 298084 15 | 66:14.35 | 4:56.74 | 298085 | 320358 16 | 71:11.34 | 7:02.01 | 320359 | 352009
Range status and errors
Selected range
Filename C:\EAC\Gothic Romance\Gothic Romance 6\Gothic Romance 6 CD2.wav
Peak level 98.8 % Extraction speed 2.1 X Range quality 99.9 % Copy CRC 7D966070 Copy OK
No errors occurred
AccurateRip summary
Track 1 not present in databaseTrack 2 not present in databaseTrack 3 not present in databaseTrack 4 not present in databaseTrack 5 not present in databaseTrack 6 not present in databaseTrack 7 not present in databaseTrack 8 not present in databaseTrack 9 not present in databaseTrack 10 not present in databaseTrack 11 not present in databaseTrack 12 not present in databaseTrack 13 not present in databaseTrack 14 not present in databaseTrack 15 not present in databaseTrack 16 not present in database
None of the tracks are present in the AccurateRip database
End of status report
---- CUETools DB Plugin V2.1.3
[CTDB TOCID: WvKTRpkVMi8U3Mn82uDylDNG4tA-] disk not present in database, Submit result: WvKTRpkVMi8U3Mn82uDylDNG4tA- has been uploaded
==== Log checksum EA4B493959172A10F66883F79A05D9E5B257ECCB2908FBA8CD24025D8840BD50 ====

Лог проверки качества CD1

-----------------------
DON'T MODIFY THIS FILE
-----------------------
PERFORMER: auCDtect Task Manager, ver. 1.6.0 RC1 build 1.6.0.1Copyright (c) 2008-2010 y-soft. All rights reservedhttp://y-soft.org
ANALYZER: auCDtect: CD records authenticity detector, version 0.8.2Copyright (c) 2004 Oleg Berngardt. All rights reserved.Copyright (c) 2004 Alexander Djourik. All rights reserved.
FILE: Gothic Romance 6 CD1.flac Size: 535155891 Hash: BAF00E30CFF92E45D2885A4B92222361 Accuracy: -m0 Conclusion: CDDA 100% Signature: 2E76B6518367B88C5B8C9D0B446727E00455ADD8

Лог проверки качества CD2

-----------------------
DON'T MODIFY THIS FILE
-----------------------
PERFORMER: auCDtect Task Manager, ver. 1.6.0 RC1 build 1.6.0.1Copyright (c) 2008-2010 y-soft. All rights reservedhttp://y-soft.org
ANALYZER: auCDtect: CD records authenticity detector, version 0.8.2Copyright (c) 2004 Oleg Berngardt. All rights reserved.Copyright (c) 2004 Alexander Djourik. All rights reserved.
FILE: Gothic Romance 6 CD2.flac Size: 564674326 Hash: C9C5AC097B8CBC75BC44279A396CD1CE Accuracy: -m0 Conclusion: CDDA 100% Signature: 28F2D3B12FD34F2BDAEA7C3B8DFF350FA7A84C75

Gothic Romance 7Лог создания рипа CD1

Exact Audio Copy V1.3 from 2. September 2016
EAC extraction logfile from 19. April 2019, 19:15
Various Artists / Gothic Romance 7 CD1
Used drive : TSSTcorpCDDVDW SH-S202N Adapter: 1 ID: 0
Read mode : SecureUtilize accurate stream : YesDefeat audio cache : YesMake use of C2 pointers : No
Read offset correction : 6Overread into Lead-In and Lead-Out : NoFill up missing offset samples with silence : YesDelete leading and trailing silent blocks : NoNull samples used in CRC calculations : YesUsed interface : Native Win32 interface for Win NT & 2000
Used output format : User Defined EncoderSelected bitrate : 896 kBit/sQuality : HighAdd ID3 tag : NoCommand line compressor : C:\Program Files (x86)\Exact Audio Copy\CUETools\CUETools.FLACCL.cmd.exeAdditional command line options : -7 --verify --cpu-threads 10 %source% -o %dest%
TOC of the extracted CD
Track | Start | Length | Start sector | End sector --------------------------------------------------------- 1 | 0:00.00 | 3:50.52 | 0 | 17301 2 | 3:50.52 | 3:23.42 | 17302 | 32568 3 | 7:14.19 | 4:10.66 | 32569 | 51384 4 | 11:25.10 | 5:25.13 | 51385 | 75772 5 | 16:50.23 | 6:51.09 | 75773 | 106606 6 | 23:41.32 | 4:19.10 | 106607 | 126041 7 | 28:00.42 | 4:19.29 | 126042 | 145495 8 | 32:19.71 | 4:09.41 | 145496 | 164211 9 | 36:29.37 | 4:16.42 | 164212 | 183453 10 | 40:46.04 | 3:55.39 | 183454 | 201117 11 | 44:41.43 | 6:51.74 | 201118 | 232016 12 | 51:33.42 | 5:00.43 | 232017 | 254559 13 | 56:34.10 | 4:30.61 | 254560 | 274870 14 | 61:04.71 | 4:56.29 | 274871 | 297099 15 | 66:01.25 | 7:44.51 | 297100 | 331950
Range status and errors
Selected range
Filename C:\EAC\Gothic Romance\2019 - Gothic Romance 7\Gothic Romance 7 CD1.wav
Peak level 98.8 % Extraction speed 8.6 X Range quality 100.0 % Copy CRC 868B98B8 Copy OK
No errors occurred
AccurateRip summary
Track 1 not present in databaseTrack 2 not present in databaseTrack 3 not present in databaseTrack 4 not present in databaseTrack 5 not present in databaseTrack 6 not present in databaseTrack 7 not present in databaseTrack 8 not present in databaseTrack 9 not present in databaseTrack 10 not present in databaseTrack 11 not present in databaseTrack 12 not present in databaseTrack 13 not present in databaseTrack 14 not present in databaseTrack 15 not present in database
None of the tracks are present in the AccurateRip database
End of status report
---- CUETools DB Plugin V2.1.6
[CTDB TOCID: Gx.Zbz717CFD2xWYftEJxSa0sYg-] foundSubmit result: Gx.Zbz717CFD2xWYftEJxSa0sYg- has been confirmedTrack | CTDB Status 1 | (3/3) Accurately ripped 2 | (3/3) Accurately ripped 3 | (3/3) Accurately ripped 4 | (3/3) Accurately ripped 5 | (3/3) Accurately ripped 6 | (3/3) Accurately ripped 7 | (3/3) Accurately ripped 8 | (3/3) Accurately ripped 9 | (3/3) Accurately ripped 10 | (3/3) Accurately ripped 11 | (3/3) Accurately ripped 12 | (3/3) Accurately ripped 13 | (3/3) Accurately ripped 14 | (3/3) Accurately ripped 15 | (2/3) Accurately ripped
==== Log checksum E2C2B9260BAA73427757752E9C6CAF6168E36D76D9FE054A1E5E9494AA82A304 ====

Лог создания рипа CD2

Exact Audio Copy V1.3 from 2. September 2016
EAC extraction logfile from 19. April 2019, 19:26
Various Artists / Gothic Romance 7 CD2
Used drive : TSSTcorpCDDVDW SH-S202N Adapter: 1 ID: 0
Read mode : SecureUtilize accurate stream : YesDefeat audio cache : YesMake use of C2 pointers : No
Read offset correction : 6Overread into Lead-In and Lead-Out : NoFill up missing offset samples with silence : YesDelete leading and trailing silent blocks : NoNull samples used in CRC calculations : YesUsed interface : Native Win32 interface for Win NT & 2000
Used output format : User Defined EncoderSelected bitrate : 896 kBit/sQuality : HighAdd ID3 tag : NoCommand line compressor : C:\Program Files (x86)\Exact Audio Copy\CUETools\CUETools.FLACCL.cmd.exeAdditional command line options : -7 --verify --cpu-threads 10 %source% -o %dest%
TOC of the extracted CD
Track | Start | Length | Start sector | End sector --------------------------------------------------------- 1 | 0:00.00 | 4:55.63 | 0 | 22187 2 | 4:55.63 | 5:21.15 | 22188 | 46277 3 | 10:17.03 | 3:53.20 | 46278 | 63772 4 | 14:10.23 | 4:58.03 | 63773 | 86125 5 | 19:08.26 | 4:52.28 | 86126 | 108053 6 | 24:00.54 | 3:57.45 | 108054 | 125873 7 | 27:58.24 | 3:23.45 | 125874 | 141143 8 | 31:21.69 | 5:28.53 | 141144 | 165796 9 | 36:50.47 | 3:51.31 | 165797 | 183152 10 | 40:42.03 | 6:09.54 | 183153 | 210881 11 | 46:51.57 | 3:26.04 | 210882 | 226335 12 | 50:17.61 | 4:02.06 | 226336 | 244491 13 | 54:19.67 | 5:26.27 | 244492 | 268968 14 | 59:46.19 | 5:11.33 | 268969 | 292326 15 | 64:57.52 | 4:11.26 | 292327 | 311177
Range status and errors
Selected range
Filename C:\EAC\Gothic Romance\2019 - Gothic Romance 7\Gothic Romance 7 CD2.wav
Peak level 98.8 % Extraction speed 8.4 X Range quality 99.9 % Copy CRC 1643264A Copy OK
No errors occurred
AccurateRip summary
Track 1 not present in databaseTrack 2 not present in databaseTrack 3 not present in databaseTrack 4 not present in databaseTrack 5 not present in databaseTrack 6 not present in databaseTrack 7 not present in databaseTrack 8 not present in databaseTrack 9 not present in databaseTrack 10 not present in databaseTrack 11 not present in databaseTrack 12 not present in databaseTrack 13 not present in databaseTrack 14 not present in databaseTrack 15 not present in database
None of the tracks are present in the AccurateRip database
End of status report
---- CUETools DB Plugin V2.1.6
[CTDB TOCID: GofvX51CC3bfJHunwA6IG83rMow-] foundSubmit result: GofvX51CC3bfJHunwA6IG83rMow- has been confirmedTrack | CTDB Status 1 | (1/1) Accurately ripped 2 | (1/1) Accurately ripped 3 | (1/1) Accurately ripped 4 | (1/1) Accurately ripped 5 | (1/1) Accurately ripped 6 | (1/1) Accurately ripped 7 | (1/1) Accurately ripped 8 | (1/1) Accurately ripped 9 | (1/1) Accurately ripped 10 | (1/1) Accurately ripped 11 | (1/1) Accurately ripped 12 | (1/1) Accurately ripped 13 | (1/1) Accurately ripped 14 | (1/1) Accurately ripped 15 | (1/1) Accurately ripped
==== Log checksum C3CB3121F0E52991566A0F1704A8519FB27506FBEE26D3C4033D3F92124C80CF ====

Лог проверки качества CD1

-----------------------
DON'T MODIFY THIS FILE
-----------------------
PERFORMER: auCDtect Task Manager, ver. 1.6.0 RC1 build 1.6.0.1Copyright (c) 2008-2010 y-soft. All rights reservedhttp://y-soft.org
ANALYZER: auCDtect: CD records authenticity detector, version 0.8.2Copyright (c) 2004 Oleg Berngardt. All rights reserved.Copyright (c) 2004 Alexander Djourik. All rights reserved.
FILE: Gothic Romance 7 CD1.flac Size: 493427863 Hash: 4E1F5FA379BCF7C983A0B56DA0E6F99A Accuracy: -m0 Conclusion: CDDA 100% Signature: C61C2F6C58AF5F1ED77958E38920EA6840FA781B

Лог проверки качества CD2

-----------------------
DON'T MODIFY THIS FILE
-----------------------
PERFORMER: auCDtect Task Manager, ver. 1.6.0 RC1 build 1.6.0.1Copyright (c) 2008-2010 y-soft. All rights reservedhttp://y-soft.org
ANALYZER: auCDtect: CD records authenticity detector, version 0.8.2Copyright (c) 2004 Oleg Berngardt. All rights reserved.Copyright (c) 2004 Alexander Djourik. All rights reserved.
FILE: Gothic Romance 7 CD2.flac Size: 455843772 Hash: D9683B51B9A518BEA2281AC615702917 Accuracy: -m0 Conclusion: CDDA 100% Signature: 1EE2B380C0FDBB5E9704679D093D17EB25CF5D5F

История обновлений торрента

2013-12-08: Первая версия, Gothic Romance 1-6.
2019-04-19: Добавлен альбом Gothic Romance 7, папки переименованы в соответствии с правилами (Год - Альбом).


[geo-torrent.biz]_t_4610021.torrent
Torrent: Registered ·  [ 2019-05-07 22:00 ] ·  29a6b0963d968106880faedbe2d1153ef12c74

25 KB

Status: checked
Completed: 0 times
Size: 6.75 GB
Rating: 
(Votes: 0)
Say thanks: 0  Thanks
Похожие темы
[Profile]    [PM]
Display posts from previous:    
Reply to topic

The time now is: Today 07:45

All times are GMT + 7 Hours



You cannot post new topics in this forum
You cannot reply to topics in this forum
You cannot edit your posts in this forum
You cannot delete your posts in this forum
You cannot vote in polls in this forum
You cannot attach files in this forum
You can download files in this forum