Строим из LEGO Mindstorms. Сезон 1 [2012-2013, Конструирование, Cam]

Reply to topic
DL-List and Torrent activity [Update пиров]
Size:  52.98 GB   |    Registered:  2 years 9 months   |    Completed:  0 times

Seeder not seen: Never

 
   
 
 
 
Author Message

Генри

Post 19-Feb-2017 09:30

[Quote]

Строим из LEGO Mindstorms. Сезон 1
Страна: Россия
Тематика: Конструирование
Тип раздаваемого материала: Видеоэкскурс
Продолжительность: серии по 10-15 минут
Год выхода: 2012-2013
Язык: Русский
Субтитры: Русские (в некоторых сериях)
Описание: Конструирование из LEGO Mindstorms на примере базовых моделей и моделей из LEGO Community. Показаны основные этапы сборки, тестирования, демонстрации готовых моделей. Снимаю сам, поэтому съемки бытового уровня, но это как раз интересно тем, что позволяет увидеть Mindstorms изнутри, оценить с чем Вы столкнетесь в реальности, а не по рекламным роликам.
[url=viewtopic.php?t=4554277]Строим из LEGO Mindstorms. Сезон 2[/url]
[url=viewtopic.php?t=5103746]Строим из LEGO Mindstorms. Сезон 3[/url]
Раздача ведется добавлением новых серий.
Раздача обновлена 23.09.2013
Если у Вас уже скачаны предыдущие серии, нет необходимости качать все заново. Просто скачайте торрент в папку со старыми сериями, таким образом докачаются только новые.

Другие наши раздачи

[url=viewtopic.php?t=4360740]Строим из микроконтроллеров(HD-качество)[/url]
[url=viewtopic.php?t=4566253]Видеокурс "Практическая робототехника на платформе Arduino"[/url]
[url=viewtopic.php?t=4268942]Строим из LEGO Technic[/url]
[url=viewtopic.php?t=4323324]Строим из LEGO Mindstorms (Divx/SD-качество)[/url]
[url=viewtopic.php?t=4354885]Учебник начинающего велосипедиста[/url]
[url=viewtopic.php?t=4160027]ВелоДети.РФ видеолетопись проекта, сезоны 2011-2012[/url]

Список и описание серий 1-го сезона

1. Шутербот
Первый робот, с которого стоит начать знакомство с Mindstorms NXT — реагирует на движение, он может охранить комнату и в случае движения начать стрелять шариками
2. Робогатор
Робот-крокодил, который прыгает на все что встречается на его пути.
3. Робот-сортировщик
Робот, который умеет различать цвета и сортировать шарики
4. АльфаРекс
Робот-гуманоид, он умеет ходить, танцевать, говорить, избегать препятствия и захватывать цветные объекты.
5. Богомол Manty
Возьмите Ваш NXT 2.0 набор и переверните его, чтобы вы могли увидеть обратную сторону. Слева вы найдете два очень маленьких роботов, один из которых - МАНТИ! Это одна из бонусных официальных MINDSTORMS моделей NXT 2.0. МАНТИ - застенчивый робот-животное, которое ходит и радуется жизни, пока не увидит кулак (а Вы ему покажите). Когда это бедное существо всё-таки увидит кулак, то он сразу опускает голову и отворачивается. Затем снова начинает весело ходить в новом направлении.
6. Сегвей
Этот робот имитирует всем известный Segway PT, который является двухколесным самобалансирующимся транспортным средством, на котором находится наездник(водитель). Балансрует он с помощью датчика цвета из набора NXT 2.0 версии конструктора 8547. При этом датчик используется в простом режиме, определяя близость к земле. Обнаруживая приблизительный угол наклона, робот балансирует своё положения (постоянно подруливает двигателями)! Для забавы, если у Вас есть второй блок NXT, Вы можете настроить удалённое управление по каналу Bluetooth этим Segway-роботом. Это позволит Вам управлять уровнем наклона всадника вперед и назад с помощью блока NXT в качестве Bluetooth-пульт дистанционного управления. Естественно, при этом робот начнет подруливать вперед или назад для создания баланса, так же, как реальный Segway! Многие самобалансирующейся роботы (в том числе настоящее транспортное средство Segway PT) используют специальные гироскопические или другие сложные и дорогие датчики для обнаружения угол наклона робота. А этот робот использует только датчик цвета (в режиме датчика света), направляя датчик на землю и измеряет отраженный свет, который незначительно меняется в зависимости от того, насколько близко датчик находится от земли.
7. Автобот
Этот автобот выглядит и управляется как настоящий автомобиль! Констуктивно он разработан так, что передние колёса имеют поворотную платформу и поворачиваются с помощью двигателя. В конструкции также есть "хитрые" шестерёнки, увеличивающие скорость вращения задних ведущих колёс. Датчик цвета находится под машиной так, чтобы автомобиль мог делать простые автономные операции, считывая цвет поверхности. Датчик может распознать шесть различных цветов, так что вы можете сделать автомобиль, который будет реагировать на различные цветные линии, цветные полосы бумаги и т. д. Вы также можете управлять автомобилем с помощью дистанционного управления: с простого двухкнопочного проводного пульта дистанционного управления (требуется только один NXT комплект), беспроводным Bluetooth-пультом дистанционного управления от другого NXT или с компьютера, подключив игровой руль или джойстик.
8. Гитара
Вдарим рок в этой дыре! Электрогитара из NXT 2.0 вполне себе детского размера, на которой вполне можно сыграть несложную мелодию
9. Исследователь
Миссия этого робота состоит в исследовании всего вокруг. Неважно где он находится: в Вашей комнате, дома, или где то на улице. Робот «видит» стены и другие препятствия, старается не соприкосать с ними. Подъезжая близко к препятствию робот поворачивает голову сначала налево, потом направо. Определяет, в каком направлении лучше всего ехать, поворачивается и едет. В случае, если он всё-таки случайно столкнётся с чем-то пердним бампером, то датчик нажатия сработает и робот остановится, подумает в какую сторону повернуть. И лишь потом поедет в верном направлении.
10. Нападающий Коготь
Этот нападающий коготь будет использовать ультразвуковой датчик для автоматического обнаружения цели, корректировать расстояние до цели, затем ударяет когтём, как хлыстом, чтобы попасть в цель.
11. Велосипедист
Наш первый робот, построенный не по инструкциям. Являясь активными участниками проета [url=viewtopic.php?t=4160027]ВелоДети.РФ[/url], авторы робота собрали довольно любопытного робота, который бодно крутит педали
12a. Папай. Подготовка к фестивалю робототехники 2012
Подготовка к первым соревнованиям в секциях траектория, кегельринг, кегельринг-квадро. Простые алгоритмы для начинающих
12b. Фестиваль робототехники 2012. Самарская область
Первые соревнования юных робототехников. Команда получила временное название "Папай". Выступление в секциях траектория, кегельринг, кегельринг-квадро.
13. Дуэль
Можно предположить, что каждый из вас хоть раз в жизни смотрел фильм о жизни ковбоев в южных штатах Америки. Кульминационным моментом в таких фильмах является дуэль один на один между плохим парнем и главным героем - кто первее выхватил пистолет и выстрелил, тот обычно остается живее противника. Чтобы выходить из таких поединков победителем (мало ли попадете в прошлое, как герой фильма "Назад в будущее"?) - нужно тренировать свою реакцию. И не стоит расстраиваться, что у вас нет под рукой настоящего револьвера, тренировку можно осуществлять даже с помощью конструктора Lego Mindstorms NXT 2.0.
14. Собиратель Кубика Рубика
Швейцарец-программист по имени Ханс Андерссон купил набор конструктора Лего, для своих двух дочерей, и сам увлёкся этим конструктором. Из конструктора он сделал робота, который собирает Кубик Рубика! Tilted Twister (так был назван робот) решает кубик Рубика полностью автоматически. Ультразвуковой датчик сканирует кубик и определяет его цвета. Затем она вычисляет последовательность вращений для решения и выполняет повороты кубика. Детали из стандартного набора LEGO NXT 2.0 (всего три сервопривода). Интересно что робот работает без подключения к компьютеру, т.е. вычисляет алгоритм решения с помощью своего процессора
15a. Подготовка к областному турниру мобильных роботов. Карандаш и Самоделкин
Подготовка к турниру, описание конструкций и алгоритмов роботов, поиск удачных решений. Секции следование по линии, траектория, кегельринг.
15b. Областной турнир мобильных роботов. СГАУ, 08.11.2012
Команда юных робототехников, которая теперь называется "Карандаш и Самоделкин" участвует в областном турнире роботов в секциях следование по линии, траектория, кегельринг
16. Робот, играющий в крестики-нолики
В одной из своих книг Daniele Benedettelli делится секретом, относительно того как собрать и запрограммировать Lego-робота, играющего в крестики-нолики. Конструкция робота очень интересная. К тому же она подкупает тем, что для того чтобы собрать такого робота, достаточно только деталей, входящих в Lego Mindstorms NXT 2.0 набор. Основа конструкции - поворотное рабочее поле. Это действительно, гениальный ход, позволяющий анализировать все рабочее поле, с минимальным набором деталей и двигателей
17. Морф
M.O.R.P.H.: Первая LEGO MINDSTORMS NXT 2.0 Альтернативная модель, которая была изображёна на задней стороне коробки набора NXT 2.0. Робот может превращаться из гусеничного робота в "гуманоида".
18. Робот-баскетболист NXTitzki
NXTitzki – играющий в баскетбол робот, названный в честь Дирка Новицки, знаменитого немецкого игрока NBA.
Его можно сконструировать с помощью одного-единственного набора NXT 2.0.

19. Первые шаги к футболу роботов
Веселая игра для всей семьи. Это могут быть даже не совсем роботы, управлять можно и technic-моделями. Но NXT-робот, например на воротах будет очень кстати!
20. Проект "Робот, следующий по линии"
Всероссийский конкурс исследовательских работ учащихся "ЮНОСТЬ, НАУКА, КУЛЬТУРА" Направление: математика и информационные технологии. Тема: "Практическая информатика на примере робота, следующего по линии"
21. Робот NXTAPOD
Шесть ног на одном моторе! Это одна из самых простых, и вместе с тем, интересных моделей шагающих роботов. Придумал эту модель Даниэль Бенедеттелли (Daniele Benedettelli) ещё в 2009 году. В модели использован всего один мотор, однако это не помешало Даниэлю сделать очень простой, но хитрый механизм, благодаря которому при движении вперёд робот движется прямо, а при движении назад - разворачивается. Подробнее о роботе на сайте lego56.ru
22. Робот - игровой автомат
Игровой автомат с возможностью играть вдвоем. Классические игры: Asteroids from Atari (1978), Lunar Lander from Atari (1979), Pong from Atari (1975), HeadOn from Sega and Gremlin (1979), Arkanoid from Taito (1986)
23. Робот Черепаха
Крайне интересный робот. Алгоритм с машиной состояний, любопытная конструкция.
24a. Подготовка к фестивалю робототехники 2013. Карандаш и Самоделкин
Подготовка к соревнованиям в секции сумо роботов. Описание алгоритма работы робота, поиск и тестирование различных конструктивных решений
24b. Фестиваль робототехники 2013. Самарская область
Областной фестиваль робототехники, команда "Карандаш и Самоделкин" участвует в секциях "Батик" и "Сумо"
25a. РОБОМИР 2013. Подготовка
Серьезные соревнования = серьезные требования. Робота нужно собрать и протестировать за час не пользуясь подсказками. "Карандаш и Самоделкин" тренируются в сборке и отлаживают робота для участия в соревнованиях "Батик".
25b. РОБОМИР 2013. Карандаш и Самоделкин в Москве
Команда юных роботехников "Карандаш и Самоделкин" в составе сборной от области отправляется в Москву на фестиваль РОБОМИР.
26. Робот-змея R3PTAR из NXT 2.0
Тот, кто смотрел рекламные ролики LEGO Mindstorms EV3, наверняка помнят робота R3PTAR - змею, которую можно создать из коробочной версии конструктора. Так вот энтузиасты решили не ждать появления конструктора в продаже и собрали данную модель из того, что было под рукой, а именно из LEGO Mindstorms NXT 2.0. Автор программы A. Kolotov.
27. Барабанная установка
Эта отличная барабанная установка собирается всего из одного NXT 2.0 набора. Установка состоит из тарелки, барабана и бас-барабана, которые издают похожие звуки при ударе по ним. Это довольно здорово, но что делает эту работу еще лучше - так это встроенная игра-тренажер. Робот отыгрывает ритм и барабанщику надо этот ритм повторять какое-то время. Чем ближе ты к завершению упражнения, тем выше поднимается флажок.
28. Скачки
Веселая игра на двух игроков. Всадник того игрока, который чаще нажимает кнопку, первым приходит к финишу. Но стоит замешкаться и его отбрасывает назад. Кроме деталей NXT-набора Вам потребуются гусеницы и лего фигурки всадников.29. Робот Трипод
Трипод - очень любопытная модель. Каждая нога управляется отдельным процессом, с использованием ПИД-регулирования. Требует настройки под развесовку после сборки, даже то как будут проложены провода будет влиять на настройку равновесия в коде. Инструкция и программа доступны по ссылке Обратите внимание на настройки компилятора на странице автора, иначе робот не оживет.
30. Лего Пинбол
Робот для игры в пинбол из NXT 2.0. Пинбол (англ. pinball) — тип аркадной игры, в которой игрок набирает игровые очки, манипулируя одним или более шариками на игровом поле при помощи лапок (флипперов). Основная цель игры — набрать настолько большое количество игровых очков, насколько это возможно. Вторая по важности цель — максимально увеличить длительность игры.
31. Лего Скорпион 2.0
За основу взята инструкция от NXT Spike 1.0, в NXT 2.0 есть некоторые отличия в составе деталей и нет микрофона, но все равно скорпион получился очень похожим на своего предка.
32. Обзор LEGO Mindstorms EV3
Сравнительный обзор нового робототехнического набора EV3 31313. Измеряем скорость работы по сравнению с NXT, сравниваем с NXT скорость опроса датчиков, проверяем совместимость компонентов старого и нового наборов.

Качество: Cam
Формат файла: MKV
Видео кодек: AVC(High@L4.1)
Аудио кодек: AC3
Видео: AVC 1280x720, 12000 kbps, 50 fps
Аудио: AC3 448 kbps 48kHz 5.1

Отчет MediaInfo

Общее
Уникальный идентификатор : 173707370372122786982098048694380152121 (0x82AED296F70C2D859B317E2C9A104539)
Полное имя : S:\Строим из LEGO Mindstorms (HD)\12a Фестиваль робототехники 2012. Подготовка.mkv
Формат файла : Matroska
Версия формата : Version 2
Размер файла : 2,93 Гбайт
Продолжительность : 33 м.
Общий поток : 12,5 Мбит/сек
Дата кодирования : UTC 2013-01-19 06:52:20
Программа кодирования : mkvmerge v4.8.0 ('I Got The...') сборка от May 24 2011 03:12:58
Библиотека кодирования : libebml v1.2.0 + libmatroska v1.1.0
Видео
Идентификатор : 1
Формат файла : AVC
Формат файла/Информация : Advanced Video Codec
Профиль формата : High@L4.1
Параметр CABAC формата : Да
Параметр ReFrames формата : 4 кадра
Идентификатор кодека : V_MPEG4/ISO/AVC
Продолжительность : 33 м.
Битрейт : 12,0 Мбит/сек
Ширина : 1280 пикселей
Высота : 720 пикселей
Соотношение сторон : 16:9
Режим частоты кадров : Постоянный
Частота кадров : 50,000 кадров/сек
Цветовое пространство : YUV
Субдискретизация насыщенности : 4:2:0
Битовая глубина : 8 бит
Тип развёртки : Прогрессивная
Бит/(Пиксели*Кадры) : 0.260
Размер потока : 2,77 Гбайт (94%)
Заголовок : video
Библиотека кодирования : x264 core 115 r1995 c1e60b9
Настройки программы : cabac=1 / ref=2 / deblock=1:0:0 / analyse=0x3:0x113 / me=hex / subme=6 / psy=1 / psy_rd=1.00:0.00 / mixed_ref=1 / me_range=16 / chroma_me=1 / trellis=1 / 8x8dct=1 / cqm=0 / deadzone=21,11 / fast_pskip=1 / chroma_qp_offset=-2 / threads=3 / sliced_threads=0 / nr=0 / decimate=1 / interlaced=0 / bluray_compat=0 / constrained_intra=0 / bframes=3 / b_pyramid=2 / b_adapt=1 / b_bias=0 / direct=1 / weightb=1 / open_gop=0 / weightp=1 / keyint=250 / keyint_min=25 / scenecut=40 / intra_refresh=0 / rc_lookahead=30 / rc=2pass / mbtree=1 / bitrate=12000 / ratetol=1.0 / qcomp=0.60 / qpmin=0 / qpmax=69 / qpstep=4 / cplxblur=20.0 / qblur=0.5 / ip_ratio=1.40 / aq=1:1.00
Язык : English
Default : Да
Forced : Нет
Аудио
Идентификатор : 2
Формат файла : AC-3
Формат файла/Информация : Audio Coding 3
Расширение режима : CM (complete main)
Параметр Endianness формата : Big
Идентификатор кодека : A_AC3
Продолжительность : 33 м.
Вид битрейта : Постоянный
Битрейт : 448 Кбит/сек
Каналы : 6 каналов
Расположение каналов : Front: L C R, Side: L R, LFE
Частота : 48,0 КГц
Битовая глубина : 16 бит
Метод сжатия : С потерями
Размер потока : 108 Мбайт (4%)
Заголовок : audio
Язык : Russian
Default : Да
Forced : Нет
Общее
Уникальный идентификатор : 181584432449929889599091267024691746918 (0x889BE3BC1A9AE1C49C7366F308115866)
Полное имя : S:\Строим из LEGO Mindstorms (HD)\18 Лего Робот-баскетболист NXTitzki.mkv
Формат файла : Matroska
Версия формата : Version 2
Размер файла : 518 Мбайт
Продолжительность : 5 м. 46 с.
Общий поток : 12,6 Мбит/сек
Дата кодирования : UTC 2013-01-19 05:56:06
Программа кодирования : mkvmerge v4.8.0 ('I Got The...') сборка от May 24 2011 03:12:58
Библиотека кодирования : libebml v1.2.0 + libmatroska v1.1.0
Видео
Идентификатор : 1
Формат файла : AVC
Формат файла/Информация : Advanced Video Codec
Профиль формата : High@L4.1
Параметр CABAC формата : Да
Параметр ReFrames формата : 4 кадра
Идентификатор кодека : V_MPEG4/ISO/AVC
Продолжительность : 5 м. 46 с.
Битрейт : 12,0 Мбит/сек
Ширина : 1280 пикселей
Высота : 720 пикселей
Соотношение сторон : 16:9
Режим частоты кадров : Постоянный
Частота кадров : 50,000 кадров/сек
Цветовое пространство : YUV
Субдискретизация насыщенности : 4:2:0
Битовая глубина : 8 бит
Тип развёртки : Прогрессивная
Бит/(Пиксели*Кадры) : 0.260
Размер потока : 490 Мбайт (94%)
Заголовок : video
Библиотека кодирования : x264 core 115 r1995 c1e60b9
Настройки программы : cabac=1 / ref=2 / deblock=1:0:0 / analyse=0x3:0x113 / me=hex / subme=6 / psy=1 / psy_rd=1.00:0.00 / mixed_ref=1 / me_range=16 / chroma_me=1 / trellis=1 / 8x8dct=1 / cqm=0 / deadzone=21,11 / fast_pskip=1 / chroma_qp_offset=-2 / threads=3 / sliced_threads=0 / nr=0 / decimate=1 / interlaced=0 / bluray_compat=0 / constrained_intra=0 / bframes=3 / b_pyramid=2 / b_adapt=1 / b_bias=0 / direct=1 / weightb=1 / open_gop=0 / weightp=1 / keyint=250 / keyint_min=25 / scenecut=40 / intra_refresh=0 / rc_lookahead=30 / rc=abr / mbtree=1 / bitrate=12000 / ratetol=1.0 / qcomp=0.60 / qpmin=0 / qpmax=69 / qpstep=4 / ip_ratio=1.40 / aq=1:1.00
Язык : English
Default : Да
Forced : Нет
Аудио
Идентификатор : 2
Формат файла : AC-3
Формат файла/Информация : Audio Coding 3
Расширение режима : CM (complete main)
Параметр Endianness формата : Big
Идентификатор кодека : A_AC3
Продолжительность : 5 м. 46 с.
Вид битрейта : Постоянный
Битрейт : 448 Кбит/сек
Каналы : 6 каналов
Расположение каналов : Front: L C R, Side: L R, LFE
Частота : 48,0 КГц
Битовая глубина : 16 бит
Метод сжатия : С потерями
Размер потока : 18,5 Мбайт (4%)
Заголовок : audio
Язык : Russian
Default : Да
Forced : Нет
Общее
Уникальный идентификатор : 249972155772482821907709637765212341573 (0xBC0EE2D152DB31878C6ABA502B1B0545)
Полное имя : S:\Строим из LEGO Mindstorms (HD)\19 Первые шаги к футболу роботов.mkv
Формат файла : Matroska
Версия формата : Version 2
Размер файла : 1,20 Гбайт
Продолжительность : 13 м.
Общий поток : 12,5 Мбит/сек
Дата кодирования : UTC 2013-01-19 05:46:40
Программа кодирования : mkvmerge v4.8.0 ('I Got The...') сборка от May 24 2011 03:12:58
Библиотека кодирования : libebml v1.2.0 + libmatroska v1.1.0
Видео
Идентификатор : 1
Формат файла : AVC
Формат файла/Информация : Advanced Video Codec
Профиль формата : High@L4.1
Параметр CABAC формата : Да
Параметр ReFrames формата : 4 кадра
Идентификатор кодека : V_MPEG4/ISO/AVC
Продолжительность : 13 м.
Битрейт : 12,0 Мбит/сек
Ширина : 1280 пикселей
Высота : 720 пикселей
Соотношение сторон : 16:9
Режим частоты кадров : Постоянный
Частота кадров : 50,000 кадров/сек
Цветовое пространство : YUV
Субдискретизация насыщенности : 4:2:0
Битовая глубина : 8 бит
Тип развёртки : Прогрессивная
Бит/(Пиксели*Кадры) : 0.260
Размер потока : 1,13 Гбайт (94%)
Заголовок : video
Библиотека кодирования : x264 core 115 r1995 c1e60b9
Настройки программы : cabac=1 / ref=2 / deblock=1:0:0 / analyse=0x3:0x113 / me=hex / subme=6 / psy=1 / psy_rd=1.00:0.00 / mixed_ref=1 / me_range=16 / chroma_me=1 / trellis=1 / 8x8dct=1 / cqm=0 / deadzone=21,11 / fast_pskip=1 / chroma_qp_offset=-2 / threads=3 / sliced_threads=0 / nr=0 / decimate=1 / interlaced=0 / bluray_compat=0 / constrained_intra=0 / bframes=3 / b_pyramid=2 / b_adapt=1 / b_bias=0 / direct=1 / weightb=1 / open_gop=0 / weightp=1 / keyint=250 / keyint_min=25 / scenecut=40 / intra_refresh=0 / rc_lookahead=30 / rc=abr / mbtree=1 / bitrate=12000 / ratetol=1.0 / qcomp=0.60 / qpmin=0 / qpmax=69 / qpstep=4 / ip_ratio=1.40 / aq=1:1.00
Язык : English
Default : Да
Forced : Нет
Аудио
Идентификатор : 2
Формат файла : AC-3
Формат файла/Информация : Audio Coding 3
Расширение режима : CM (complete main)
Параметр Endianness формата : Big
Идентификатор кодека : A_AC3
Продолжительность : 13 м.
Вид битрейта : Постоянный
Битрейт : 448 Кбит/сек
Каналы : 6 каналов
Расположение каналов : Front: L C R, Side: L R, LFE
Частота : 48,0 КГц
Битовая глубина : 16 бит
Метод сжатия : С потерями
Размер потока : 44,0 Мбайт (4%)
Заголовок : audio
Язык : Russian
Default : Да
Forced : Нет
Общее
Уникальный идентификатор : 213213084308767503494407025816202420763 (0xA06758AB159EA30399277803B380A21B)
Полное имя : S:\Строим из LEGO Mindstorms (HD)\13 Лего Дуэль.mkv
Формат файла : Matroska
Версия формата : Version 2
Размер файла : 1,30 Гбайт
Продолжительность : 15 м.
Общий поток : 12,3 Мбит/сек
Дата кодирования : UTC 2013-01-19 05:36:13
Программа кодирования : mkvmerge v4.8.0 ('I Got The...') сборка от May 24 2011 03:12:58
Библиотека кодирования : libebml v1.2.0 + libmatroska v1.1.0
Видео
Идентификатор : 1
Формат файла : AVC
Формат файла/Информация : Advanced Video Codec
Профиль формата : High@L4.1
Параметр CABAC формата : Да
Параметр ReFrames формата : 4 кадра
Идентификатор кодека : V_MPEG4/ISO/AVC
Продолжительность : 15 м.
Битрейт : 12,0 Мбит/сек
Ширина : 1280 пикселей
Высота : 720 пикселей
Соотношение сторон : 16:9
Режим частоты кадров : Постоянный
Частота кадров : 50,000 кадров/сек
Цветовое пространство : YUV
Субдискретизация насыщенности : 4:2:0
Битовая глубина : 8 бит
Тип развёртки : Прогрессивная
Бит/(Пиксели*Кадры) : 0.260
Размер потока : 1,22 Гбайт (94%)
Заголовок : video
Библиотека кодирования : x264 core 115 r1995 c1e60b9
Настройки программы : cabac=1 / ref=2 / deblock=1:0:0 / analyse=0x3:0x113 / me=hex / subme=6 / psy=1 / psy_rd=1.00:0.00 / mixed_ref=1 / me_range=16 / chroma_me=1 / trellis=1 / 8x8dct=1 / cqm=0 / deadzone=21,11 / fast_pskip=1 / chroma_qp_offset=-2 / threads=3 / sliced_threads=0 / nr=0 / decimate=1 / interlaced=0 / bluray_compat=0 / constrained_intra=0 / bframes=3 / b_pyramid=2 / b_adapt=1 / b_bias=0 / direct=1 / weightb=1 / open_gop=0 / weightp=1 / keyint=250 / keyint_min=25 / scenecut=40 / intra_refresh=0 / rc_lookahead=30 / rc=abr / mbtree=1 / bitrate=12000 / ratetol=1.0 / qcomp=0.60 / qpmin=0 / qpmax=69 / qpstep=4 / ip_ratio=1.40 / aq=1:1.00
Язык : English
Default : Да
Forced : Нет
Аудио
Идентификатор : 2
Формат файла : AC-3
Формат файла/Информация : Audio Coding 3
Расширение режима : CM (complete main)
Параметр Endianness формата : Big
Идентификатор кодека : A_AC3
Продолжительность : 15 м.
Вид битрейта : Постоянный
Битрейт : 448 Кбит/сек
Каналы : 6 каналов
Расположение каналов : Front: L C R, Side: L R, LFE
Частота : 48,0 КГц
Битовая глубина : 16 бит
Метод сжатия : С потерями
Размер потока : 48,2 Мбайт (4%)
Заголовок : audio
Язык : Russian
Default : Да
Forced : Нет
Общее
Уникальный идентификатор : 254347392355796544140951225473624012141 (0xBF5986A2CA550DDBBBFA2BB63B59756D)
Полное имя : S:\Строим из LEGO Mindstorms (HD)\15a Областной турнир мобильных роботов. Подготовка.mkv
Формат файла : Matroska
Версия формата : Version 2
Размер файла : 1,42 Гбайт
Продолжительность : 16 м.
Общий поток : 12,3 Мбит/сек
Дата кодирования : UTC 2013-01-19 07:38:20
Программа кодирования : mkvmerge v4.8.0 ('I Got The...') сборка от May 24 2011 03:12:58
Библиотека кодирования : libebml v1.2.0 + libmatroska v1.1.0
Видео
Идентификатор : 1
Формат файла : AVC
Формат файла/Информация : Advanced Video Codec
Профиль формата : High@L4.1
Параметр CABAC формата : Да
Параметр ReFrames формата : 4 кадра
Идентификатор кодека : V_MPEG4/ISO/AVC
Продолжительность : 16 м.
Битрейт : 12,0 Мбит/сек
Ширина : 1280 пикселей
Высота : 720 пикселей
Соотношение сторон : 16:9
Режим частоты кадров : Постоянный
Частота кадров : 50,000 кадров/сек
Цветовое пространство : YUV
Субдискретизация насыщенности : 4:2:0
Битовая глубина : 8 бит
Тип развёртки : Прогрессивная
Бит/(Пиксели*Кадры) : 0.260
Размер потока : 1,34 Гбайт (94%)
Заголовок : video
Библиотека кодирования : x264 core 115 r1995 c1e60b9
Настройки программы : cabac=1 / ref=2 / deblock=1:0:0 / analyse=0x3:0x113 / me=hex / subme=6 / psy=1 / psy_rd=1.00:0.00 / mixed_ref=1 / me_range=16 / chroma_me=1 / trellis=1 / 8x8dct=1 / cqm=0 / deadzone=21,11 / fast_pskip=1 / chroma_qp_offset=-2 / threads=3 / sliced_threads=0 / nr=0 / decimate=1 / interlaced=0 / bluray_compat=0 / constrained_intra=0 / bframes=3 / b_pyramid=2 / b_adapt=1 / b_bias=0 / direct=1 / weightb=1 / open_gop=0 / weightp=1 / keyint=250 / keyint_min=25 / scenecut=40 / intra_refresh=0 / rc_lookahead=30 / rc=abr / mbtree=1 / bitrate=12000 / ratetol=1.0 / qcomp=0.60 / qpmin=0 / qpmax=69 / qpstep=4 / ip_ratio=1.40 / aq=1:1.00
Язык : English
Default : Да
Forced : Нет
Аудио
Идентификатор : 2
Формат файла : AC-3
Формат файла/Информация : Audio Coding 3
Расширение режима : CM (complete main)
Параметр Endianness формата : Big
Идентификатор кодека : A_AC3
Продолжительность : 16 м.
Вид битрейта : Постоянный
Битрейт : 448 Кбит/сек
Каналы : 6 каналов
Расположение каналов : Front: L C R, Side: L R, LFE
Частота : 48,0 КГц
Битовая глубина : 16 бит
Метод сжатия : С потерями
Размер потока : 52,7 Мбайт (4%)
Заголовок : audio
Язык : Russian
Default : Да
Forced : Нет
Общее
Уникальный идентификатор : 175331715366786936597013055338256417169 (0x83E7A8FB2BCFE9DF9EEB45F8E6664191)
Полное имя : S:\Строим из LEGO Mindstorms (HD)\10 Лего Нападающий Коготь.mkv
Формат файла : Matroska
Версия формата : Version 2
Размер файла : 1,56 Гбайт
Продолжительность : 17 м.
Общий поток : 12,5 Мбит/сек
Дата кодирования : UTC 2013-01-19 05:43:09
Программа кодирования : mkvmerge v4.8.0 ('I Got The...') сборка от May 24 2011 03:12:58
Библиотека кодирования : libebml v1.2.0 + libmatroska v1.1.0
Видео
Идентификатор : 1
Формат файла : AVC
Формат файла/Информация : Advanced Video Codec
Профиль формата : High@L4.1
Параметр CABAC формата : Да
Параметр ReFrames формата : 4 кадра
Идентификатор кодека : V_MPEG4/ISO/AVC
Продолжительность : 17 м.
Битрейт : 12,0 Мбит/сек
Ширина : 1280 пикселей
Высота : 720 пикселей
Соотношение сторон : 16:9
Режим частоты кадров : Постоянный
Частота кадров : 50,000 кадров/сек
Цветовое пространство : YUV
Субдискретизация насыщенности : 4:2:0
Битовая глубина : 8 бит
Тип развёртки : Прогрессивная
Бит/(Пиксели*Кадры) : 0.260
Размер потока : 1,47 Гбайт (94%)
Заголовок : video
Библиотека кодирования : x264 core 115 r1995 c1e60b9
Настройки программы : cabac=1 / ref=2 / deblock=1:0:0 / analyse=0x3:0x113 / me=hex / subme=6 / psy=1 / psy_rd=1.00:0.00 / mixed_ref=1 / me_range=16 / chroma_me=1 / trellis=1 / 8x8dct=1 / cqm=0 / deadzone=21,11 / fast_pskip=1 / chroma_qp_offset=-2 / threads=3 / sliced_threads=0 / nr=0 / decimate=1 / interlaced=0 / bluray_compat=0 / constrained_intra=0 / bframes=3 / b_pyramid=2 / b_adapt=1 / b_bias=0 / direct=1 / weightb=1 / open_gop=0 / weightp=1 / keyint=250 / keyint_min=25 / scenecut=40 / intra_refresh=0 / rc_lookahead=30 / rc=2pass / mbtree=1 / bitrate=12000 / ratetol=1.0 / qcomp=0.60 / qpmin=0 / qpmax=69 / qpstep=4 / cplxblur=20.0 / qblur=0.5 / ip_ratio=1.40 / aq=1:1.00
Язык : English
Default : Да
Forced : Нет
Аудио
Идентификатор : 2
Формат файла : AC-3
Формат файла/Информация : Audio Coding 3
Расширение режима : CM (complete main)
Параметр Endianness формата : Big
Идентификатор кодека : A_AC3
Продолжительность : 17 м.
Вид битрейта : Постоянный
Битрейт : 448 Кбит/сек
Каналы : 6 каналов
Расположение каналов : Front: L C R, Side: L R, LFE
Частота : 48,0 КГц
Битовая глубина : 16 бит
Метод сжатия : С потерями
Размер потока : 57,5 Мбайт (4%)
Заголовок : audio
Язык : Russian
Default : Да
Forced : Нет
Общее
Уникальный идентификатор : 240109818227406536217235299893852798510 (0xB4A37808F2FE44AE97B678364D8C7E2E)
Полное имя : S:\Строим из LEGO Mindstorms (HD)\17 Лего Морф.mkv
Формат файла : Matroska
Версия формата : Version 2
Размер файла : 913 Мбайт
Продолжительность : 10 м.
Общий поток : 12,4 Мбит/сек
Дата кодирования : UTC 2013-01-19 05:41:37
Программа кодирования : mkvmerge v4.8.0 ('I Got The...') сборка от May 24 2011 03:12:58
Библиотека кодирования : libebml v1.2.0 + libmatroska v1.1.0
Видео
Идентификатор : 1
Формат файла : AVC
Формат файла/Информация : Advanced Video Codec
Профиль формата : High@L4.1
Параметр CABAC формата : Да
Параметр ReFrames формата : 4 кадра
Идентификатор кодека : V_MPEG4/ISO/AVC
Продолжительность : 10 м.
Битрейт : 12,0 Мбит/сек
Ширина : 1280 пикселей
Высота : 720 пикселей
Соотношение сторон : 16:9
Режим частоты кадров : Постоянный
Частота кадров : 50,000 кадров/сек
Цветовое пространство : YUV
Субдискретизация насыщенности : 4:2:0
Битовая глубина : 8 бит
Тип развёртки : Прогрессивная
Бит/(Пиксели*Кадры) : 0.260
Размер потока : 862 Мбайт (94%)
Заголовок : video
Библиотека кодирования : x264 core 115 r1995 c1e60b9
Настройки программы : cabac=1 / ref=2 / deblock=1:0:0 / analyse=0x3:0x113 / me=hex / subme=6 / psy=1 / psy_rd=1.00:0.00 / mixed_ref=1 / me_range=16 / chroma_me=1 / trellis=1 / 8x8dct=1 / cqm=0 / deadzone=21,11 / fast_pskip=1 / chroma_qp_offset=-2 / threads=3 / sliced_threads=0 / nr=0 / decimate=1 / interlaced=0 / bluray_compat=0 / constrained_intra=0 / bframes=3 / b_pyramid=2 / b_adapt=1 / b_bias=0 / direct=1 / weightb=1 / open_gop=0 / weightp=1 / keyint=250 / keyint_min=25 / scenecut=40 / intra_refresh=0 / rc_lookahead=30 / rc=abr / mbtree=1 / bitrate=12000 / ratetol=1.0 / qcomp=0.60 / qpmin=0 / qpmax=69 / qpstep=4 / ip_ratio=1.40 / aq=1:1.00
Язык : English
Default : Да
Forced : Нет
Аудио
Идентификатор : 2
Формат файла : AC-3
Формат файла/Информация : Audio Coding 3
Расширение режима : CM (complete main)
Параметр Endianness формата : Big
Идентификатор кодека : A_AC3
Продолжительность : 10 м.
Вид битрейта : Постоянный
Битрейт : 448 Кбит/сек
Каналы : 6 каналов
Расположение каналов : Front: L C R, Side: L R, LFE
Частота : 48,0 КГц
Битовая глубина : 16 бит
Метод сжатия : С потерями
Размер потока : 32,9 Мбайт (4%)
Заголовок : audio
Язык : Russian
Default : Да
Forced : Нет
Общее
Уникальный идентификатор : 222516072742506995216077382291229168611 (0xA76709691E390044A4D29290DADED3E3)
Полное имя : S:\Строим из LEGO Mindstorms (HD)\21 Лего Робот NXTAPOD.mkv
Формат файла : Matroska
Версия формата : Version 2
Размер файла : 581 Мбайт
Продолжительность : 7 м. 39 с.
Общий поток : 10,6 Мбит/сек
Дата кодирования : UTC 2013-01-19 05:52:03
Программа кодирования : mkvmerge v4.8.0 ('I Got The...') сборка от May 24 2011 03:12:58
Библиотека кодирования : libebml v1.2.0 + libmatroska v1.1.0
Видео
Идентификатор : 1
Формат файла : AVC
Формат файла/Информация : Advanced Video Codec
Профиль формата : High@L4.1
Параметр CABAC формата : Да
Параметр ReFrames формата : 4 кадра
Идентификатор кодека : V_MPEG4/ISO/AVC
Продолжительность : 7 м. 39 с.
Битрейт : 9943 Кбит/сек
Номинальный битрейт : 12,0 Мбит/сек
Ширина : 1280 пикселей
Высота : 720 пикселей
Соотношение сторон : 16:9
Режим частоты кадров : Постоянный
Частота кадров : 50,000 кадров/сек
Цветовое пространство : YUV
Субдискретизация насыщенности : 4:2:0
Битовая глубина : 8 бит
Тип развёртки : Прогрессивная
Бит/(Пиксели*Кадры) : 0.216
Размер потока : 545 Мбайт (94%)
Заголовок : video
Библиотека кодирования : x264 core 115 r1995 c1e60b9
Настройки программы : cabac=1 / ref=2 / deblock=1:0:0 / analyse=0x3:0x113 / me=hex / subme=6 / psy=1 / psy_rd=1.00:0.00 / mixed_ref=1 / me_range=16 / chroma_me=1 / trellis=1 / 8x8dct=1 / cqm=0 / deadzone=21,11 / fast_pskip=1 / chroma_qp_offset=-2 / threads=3 / sliced_threads=0 / nr=0 / decimate=1 / interlaced=0 / bluray_compat=0 / constrained_intra=0 / bframes=3 / b_pyramid=2 / b_adapt=1 / b_bias=0 / direct=1 / weightb=1 / open_gop=0 / weightp=1 / keyint=250 / keyint_min=25 / scenecut=40 / intra_refresh=0 / rc_lookahead=30 / rc=abr / mbtree=1 / bitrate=12000 / ratetol=1.0 / qcomp=0.60 / qpmin=0 / qpmax=69 / qpstep=4 / ip_ratio=1.40 / aq=1:1.00
Язык : English
Default : Да
Forced : Нет
Аудио
Идентификатор : 2
Формат файла : AC-3
Формат файла/Информация : Audio Coding 3
Расширение режима : CM (complete main)
Параметр Endianness формата : Big
Идентификатор кодека : A_AC3
Продолжительность : 7 м. 39 с.
Вид битрейта : Постоянный
Битрейт : 448 Кбит/сек
Каналы : 6 каналов
Расположение каналов : Front: L C R, Side: L R, LFE
Частота : 48,0 КГц
Битовая глубина : 16 бит
Метод сжатия : С потерями
Размер потока : 24,5 Мбайт (4%)
Заголовок : audio
Язык : Russian
Default : Да
Forced : Нет
Общее
Уникальный идентификатор : 200827321263188126622595514959071167855 (0x9715EF671DDBA25998E90F345596456F)
Полное имя : S:\Строим из LEGO Mindstorms (HD)\25a РОБОМИР 2013. Подготовка.mkv
Формат файла : Matroska
Версия формата : Version 2
Размер файла : 1,60 Гбайт
Продолжительность : 27 м.
Общий поток : 8435 Кбит/сек
Дата кодирования : UTC 2013-05-04 09:43:11
Программа кодирования : mkvmerge v4.8.0 ('I Got The...') сборка от May 24 2011 03:12:58
Библиотека кодирования : libebml v1.2.0 + libmatroska v1.1.0
Видео
Идентификатор : 1
Формат файла : AVC
Формат файла/Информация : Advanced Video Codec
Профиль формата : High@L4.1
Параметр CABAC формата : Да
Параметр ReFrames формата : 4 кадра
Идентификатор кодека : V_MPEG4/ISO/AVC
Продолжительность : 27 м.
Битрейт : 8000 Кбит/сек
Ширина : 1280 пикселей
Высота : 720 пикселей
Соотношение сторон : 16:9
Режим частоты кадров : Постоянный
Частота кадров : 50,000 кадров/сек
Цветовое пространство : YUV
Субдискретизация насыщенности : 4:2:0
Битовая глубина : 8 бит
Тип развёртки : Прогрессивная
Бит/(Пиксели*Кадры) : 0.174
Размер потока : 1,48 Гбайт (93%)
Заголовок : video
Библиотека кодирования : x264 core 115 r1995 c1e60b9
Настройки программы : cabac=1 / ref=2 / deblock=1:0:0 / analyse=0x3:0x113 / me=hex / subme=6 / psy=1 / psy_rd=1.00:0.00 / mixed_ref=1 / me_range=16 / chroma_me=1 / trellis=1 / 8x8dct=1 / cqm=0 / deadzone=21,11 / fast_pskip=1 / chroma_qp_offset=-2 / threads=3 / sliced_threads=0 / nr=0 / decimate=1 / interlaced=0 / bluray_compat=0 / constrained_intra=0 / bframes=3 / b_pyramid=2 / b_adapt=1 / b_bias=0 / direct=1 / weightb=1 / open_gop=0 / weightp=1 / keyint=250 / keyint_min=25 / scenecut=40 / intra_refresh=0 / rc_lookahead=30 / rc=abr / mbtree=1 / bitrate=8000 / ratetol=1.0 / qcomp=0.60 / qpmin=0 / qpmax=69 / qpstep=4 / ip_ratio=1.40 / aq=1:1.00
Язык : English
Default : Да
Forced : Нет
Аудио
Идентификатор : 2
Формат файла : AC-3
Формат файла/Информация : Audio Coding 3
Расширение режима : CM (complete main)
Параметр Endianness формата : Big
Идентификатор кодека : A_AC3
Продолжительность : 27 м.
Вид битрейта : Постоянный
Битрейт : 448 Кбит/сек
Каналы : 6 каналов
Расположение каналов : Front: L C R, Side: L R, LFE
Частота : 48,0 КГц
Битовая глубина : 16 бит
Метод сжатия : С потерями
Размер потока : 86,9 Мбайт (5%)
Заголовок : audio
Язык : Russian
Default : Да
Forced : Нет
Общее
Уникальный идентификатор : 171944463825465091911618760228104400813 (0x815B4C9618FA1F798D7DF4EFD6096FAD)
Полное имя : S:\Строим из LEGO Mindstorms (HD)\03 Лего Робот-сортировщик.mkv
Формат файла : Matroska
Версия формата : Version 2
Размер файла : 1,13 Гбайт
Продолжительность : 12 м.
Общий поток : 12,4 Мбит/сек
Дата кодирования : UTC 2013-01-19 05:56:41
Программа кодирования : mkvmerge v4.8.0 ('I Got The...') сборка от May 24 2011 03:12:58
Библиотека кодирования : libebml v1.2.0 + libmatroska v1.1.0
Видео
Идентификатор : 1
Формат файла : AVC
Формат файла/Информация : Advanced Video Codec
Профиль формата : High@L4.1
Параметр CABAC формата : Да
Параметр ReFrames формата : 4 кадра
Идентификатор кодека : V_MPEG4/ISO/AVC
Продолжительность : 12 м.
Битрейт : 12,0 Мбит/сек
Ширина : 1280 пикселей
Высота : 720 пикселей
Соотношение сторон : 16:9
Режим частоты кадров : Постоянный
Частота кадров : 50,000 кадров/сек
Цветовое пространство : YUV
Субдискретизация насыщенности : 4:2:0
Битовая глубина : 8 бит
Тип развёртки : Прогрессивная
Бит/(Пиксели*Кадры) : 0.260
Размер потока : 1,07 Гбайт (94%)
Заголовок : video
Библиотека кодирования : x264 core 116 r2037 f8ebd4a
Настройки программы : cabac=1 / ref=3 / deblock=1:0:0 / analyse=0x3:0x113 / me=hex / subme=7 / psy=1 / psy_rd=1.00:0.00 / mixed_ref=1 / me_range=16 / chroma_me=1 / trellis=1 / 8x8dct=1 / cqm=0 / deadzone=21,11 / fast_pskip=1 / chroma_qp_offset=-2 / threads=3 / sliced_threads=0 / nr=0 / decimate=1 / interlaced=0 / bluray_compat=0 / constrained_intra=0 / bframes=3 / b_pyramid=2 / b_adapt=1 / b_bias=0 / direct=1 / weightb=1 / open_gop=0 / weightp=2 / keyint=250 / keyint_min=25 / scenecut=40 / intra_refresh=0 / rc_lookahead=40 / rc=2pass / mbtree=1 / bitrate=12000 / ratetol=1.0 / qcomp=0.60 / qpmin=0 / qpmax=69 / qpstep=4 / cplxblur=20.0 / qblur=0.5 / ip_ratio=1.40 / aq=1:1.00
Язык : English
Default : Да
Forced : Нет
Аудио
Идентификатор : 2
Формат файла : AC-3
Формат файла/Информация : Audio Coding 3
Расширение режима : CM (complete main)
Параметр Endianness формата : Big
Идентификатор кодека : A_AC3
Продолжительность : 12 м.
Вид битрейта : Постоянный
Битрейт : 448 Кбит/сек
Каналы : 6 каналов
Расположение каналов : Front: L C R, Side: L R, LFE
Частота : 48,0 КГц
Битовая глубина : 16 бит
Метод сжатия : С потерями
Размер потока : 41,6 Мбайт (4%)
Заголовок : audio
Язык : Russian
Default : Да
Forced : Нет
Общее
Уникальный идентификатор : 171117352370599202951232326799192089049 (0x80BC00D7D76C87F0A3070CE7B761E1D9)
Полное имя : S:\Строим из LEGO Mindstorms (HD)\04 Лего АльфаРекс.mkv
Формат файла : Matroska
Версия формата : Version 2
Размер файла : 763 Мбайт
Продолжительность : 8 м. 34 с.
Общий поток : 12,4 Мбит/сек
Дата кодирования : UTC 2013-01-19 05:32:09
Программа кодирования : mkvmerge v4.8.0 ('I Got The...') сборка от May 24 2011 03:12:58
Библиотека кодирования : libebml v1.2.0 + libmatroska v1.1.0
Видео
Идентификатор : 1
Формат файла : AVC
Формат файла/Информация : Advanced Video Codec
Профиль формата : High@L4.1
Параметр CABAC формата : Да
Параметр ReFrames формата : 4 кадра
Идентификатор кодека : V_MPEG4/ISO/AVC
Продолжительность : 8 м. 34 с.
Битрейт : 12,0 Мбит/сек
Ширина : 1280 пикселей
Высота : 720 пикселей
Соотношение сторон : 16:9
Режим частоты кадров : Постоянный
Частота кадров : 50,000 кадров/сек
Цветовое пространство : YUV
Субдискретизация насыщенности : 4:2:0
Битовая глубина : 8 бит
Тип развёртки : Прогрессивная
Бит/(Пиксели*Кадры) : 0.260
Размер потока : 721 Мбайт (94%)
Заголовок : video
Библиотека кодирования : x264 core 115 r1995 c1e60b9
Настройки программы : cabac=1 / ref=2 / deblock=1:0:0 / analyse=0x3:0x113 / me=hex / subme=6 / psy=1 / psy_rd=1.00:0.00 / mixed_ref=1 / me_range=16 / chroma_me=1 / trellis=1 / 8x8dct=1 / cqm=0 / deadzone=21,11 / fast_pskip=1 / chroma_qp_offset=-2 / threads=3 / sliced_threads=0 / nr=0 / decimate=1 / interlaced=0 / bluray_compat=0 / constrained_intra=0 / bframes=3 / b_pyramid=2 / b_adapt=1 / b_bias=0 / direct=1 / weightb=1 / open_gop=0 / weightp=1 / keyint=250 / keyint_min=25 / scenecut=40 / intra_refresh=0 / rc_lookahead=30 / rc=2pass / mbtree=1 / bitrate=12000 / ratetol=1.0 / qcomp=0.60 / qpmin=0 / qpmax=69 / qpstep=4 / cplxblur=20.0 / qblur=0.5 / ip_ratio=1.40 / aq=1:1.00
Язык : English
Default : Да
Forced : Нет
Аудио
Идентификатор : 2
Формат файла : AC-3
Формат файла/Информация : Audio Coding 3
Расширение режима : CM (complete main)
Параметр Endianness формата : Big
Идентификатор кодека : A_AC3
Продолжительность : 8 м. 34 с.
Вид битрейта : Постоянный
Битрейт : 448 Кбит/сек
Каналы : 6 каналов
Расположение каналов : Front: L C R, Side: L R, LFE
Частота : 48,0 КГц
Битовая глубина : 16 бит
Метод сжатия : С потерями
Размер потока : 27,5 Мбайт (4%)
Заголовок : audio
Язык : Russian
Default : Да
Forced : Нет
Общее
Уникальный идентификатор : 227841303136907055587708446521331978603 (0xAB68A38A3AA2D819AA88115FA006916B)
Полное имя : S:\Строим из LEGO Mindstorms (HD)\15b Областной турнир мобильных роботов. СГАУ 2012.mkv
Формат файла : Matroska
Версия формата : Version 2
Размер файла : 4,40 Гбайт
Продолжительность : 50 м.
Общий поток : 12,6 Мбит/сек
Дата кодирования : UTC 2013-01-19 06:59:47
Программа кодирования : mkvmerge v4.8.0 ('I Got The...') сборка от May 24 2011 03:12:58
Библиотека кодирования : libebml v1.2.0 + libmatroska v1.1.0
Видео
Идентификатор : 1
Формат файла : AVC
Формат файла/Информация : Advanced Video Codec
Профиль формата : High@L4.1
Параметр CABAC формата : Да
Параметр ReFrames формата : 4 кадра
Идентификатор кодека : V_MPEG4/ISO/AVC
Продолжительность : 50 м.
Битрейт : 12,0 Мбит/сек
Ширина : 1280 пикселей
Высота : 720 пикселей
Соотношение сторон : 16:9
Режим частоты кадров : Постоянный
Частота кадров : 50,000 кадров/сек
Цветовое пространство : YUV
Субдискретизация насыщенности : 4:2:0
Битовая глубина : 8 бит
Тип развёртки : Прогрессивная
Бит/(Пиксели*Кадры) : 0.260
Размер потока : 4,15 Гбайт (94%)
Заголовок : video
Библиотека кодирования : x264 core 115 r1995 c1e60b9
Настройки программы : cabac=1 / ref=2 / deblock=1:0:0 / analyse=0x3:0x113 / me=hex / subme=6 / psy=1 / psy_rd=1.00:0.00 / mixed_ref=1 / me_range=16 / chroma_me=1 / trellis=1 / 8x8dct=1 / cqm=0 / deadzone=21,11 / fast_pskip=1 / chroma_qp_offset=-2 / threads=3 / sliced_threads=0 / nr=0 / decimate=1 / interlaced=0 / bluray_compat=0 / constrained_intra=0 / bframes=3 / b_pyramid=2 / b_adapt=1 / b_bias=0 / direct=1 / weightb=1 / open_gop=0 / weightp=1 / keyint=250 / keyint_min=25 / scenecut=40 / intra_refresh=0 / rc_lookahead=30 / rc=abr / mbtree=1 / bitrate=12000 / ratetol=1.0 / qcomp=0.60 / qpmin=0 / qpmax=69 / qpstep=4 / ip_ratio=1.40 / aq=1:1.00
Язык : English
Default : Да
Forced : Нет
Аудио
Идентификатор : 2
Формат файла : AC-3
Формат файла/Информация : Audio Coding 3
Расширение режима : CM (complete main)
Параметр Endianness формата : Big
Идентификатор кодека : A_AC3
Продолжительность : 50 м.
Вид битрейта : Постоянный
Битрейт : 448 Кбит/сек
Каналы : 6 каналов
Расположение каналов : Front: L C R, Side: L R, LFE
Частота : 48,0 КГц
Битовая глубина : 16 бит
Метод сжатия : С потерями
Размер потока : 161 Мбайт (4%)
Заголовок : audio
Язык : Russian
Default : Да
Forced : Нет
Общее
Уникальный идентификатор : 226223381831873239594016294424971457870 (0xAA3109DC628260D79A2AF7CD12A6354E)
Полное имя : S:\Строим из LEGO Mindstorms (HD)\20 Проект Робот следующий по линии.mkv
Формат файла : Matroska
Версия формата : Version 2
Размер файла : 778 Мбайт
Продолжительность : 13 м.
Общий поток : 8353 Кбит/сек
Дата кодирования : UTC 2013-01-19 06:50:58
Программа кодирования : mkvmerge v4.8.0 ('I Got The...') сборка от May 24 2011 03:12:58
Библиотека кодирования : libebml v1.2.0 + libmatroska v1.1.0
Видео
Идентификатор : 1
Формат файла : AVC
Формат файла/Информация : Advanced Video Codec
Профиль формата : High@L4.1
Параметр CABAC формата : Да
Параметр ReFrames формата : 4 кадра
Идентификатор кодека : V_MPEG4/ISO/AVC
Продолжительность : 13 м.
Битрейт : 8000 Кбит/сек
Ширина : 1280 пикселей
Высота : 720 пикселей
Соотношение сторон : 16:9
Режим частоты кадров : Постоянный
Частота кадров : 25,000 кадров/сек
Цветовое пространство : YUV
Субдискретизация насыщенности : 4:2:0
Битовая глубина : 8 бит
Тип развёртки : Прогрессивная
Бит/(Пиксели*Кадры) : 0.347
Размер потока : 721 Мбайт (93%)
Заголовок : video
Библиотека кодирования : x264 core 115 r1995 c1e60b9
Настройки программы : cabac=1 / ref=2 / deblock=1:0:0 / analyse=0x3:0x113 / me=hex / subme=6 / psy=1 / psy_rd=1.00:0.00 / mixed_ref=1 / me_range=16 / chroma_me=1 / trellis=1 / 8x8dct=1 / cqm=0 / deadzone=21,11 / fast_pskip=1 / chroma_qp_offset=-2 / threads=3 / sliced_threads=0 / nr=0 / decimate=1 / interlaced=0 / bluray_compat=0 / constrained_intra=0 / bframes=3 / b_pyramid=2 / b_adapt=1 / b_bias=0 / direct=1 / weightb=1 / open_gop=0 / weightp=1 / keyint=250 / keyint_min=25 / scenecut=40 / intra_refresh=0 / rc_lookahead=30 / rc=abr / mbtree=1 / bitrate=8000 / ratetol=1.0 / qcomp=0.60 / qpmin=0 / qpmax=69 / qpstep=4 / ip_ratio=1.40 / aq=1:1.00
Язык : English
Default : Да
Forced : Нет
Аудио
Идентификатор : 2
Формат файла : AC-3
Формат файла/Информация : Audio Coding 3
Расширение режима : CM (complete main)
Параметр Endianness формата : Big
Идентификатор кодека : A_AC3
Продолжительность : 13 м.
Вид битрейта : Постоянный
Битрейт : 448 Кбит/сек
Каналы : 6 каналов
Расположение каналов : Front: L C R, Side: L R, LFE
Частота : 48,0 КГц
Битовая глубина : 16 бит
Метод сжатия : С потерями
Размер потока : 41,7 Мбайт (5%)
Заголовок : audio
Язык : Russian
Default : Да
Forced : Нет
Общее
Уникальный идентификатор : 238978626339507980982750771960793819858 (0xB3C99BF80AE35357AF0874E4C7886AD2)
Полное имя : S:\Строим из LEGO Mindstorms (HD)\25b РОБОМИР 2013. Карандаш и Самоделкин в Москве.mkv
Формат файла : Matroska
Версия формата : Version 2
Размер файла : 3,44 Гбайт
Продолжительность : 58 м.
Общий поток : 8455 Кбит/сек
Дата кодирования : UTC 2013-05-02 16:23:00
Программа кодирования : mkvmerge v4.8.0 ('I Got The...') сборка от May 24 2011 03:12:58
Библиотека кодирования : libebml v1.2.0 + libmatroska v1.1.0
Видео
Идентификатор : 1
Формат файла : AVC
Формат файла/Информация : Advanced Video Codec
Профиль формата : High@L4.1
Параметр CABAC формата : Да
Параметр ReFrames формата : 4 кадра
Идентификатор кодека : V_MPEG4/ISO/AVC
Продолжительность : 58 м.
Битрейт : 8000 Кбит/сек
Ширина : 1280 пикселей
Высота : 720 пикселей
Соотношение сторон : 16:9
Режим частоты кадров : Постоянный
Частота кадров : 50,000 кадров/сек
Цветовое пространство : YUV
Субдискретизация насыщенности : 4:2:0
Битовая глубина : 8 бит
Тип развёртки : Прогрессивная
Бит/(Пиксели*Кадры) : 0.174
Размер потока : 3,18 Гбайт (93%)
Заголовок : video
Библиотека кодирования : x264 core 115 r1995 c1e60b9
Настройки программы : cabac=1 / ref=2 / deblock=1:0:0 / analyse=0x3:0x113 / me=hex / subme=6 / psy=1 / psy_rd=1.00:0.00 / mixed_ref=1 / me_range=16 / chroma_me=1 / trellis=1 / 8x8dct=1 / cqm=0 / deadzone=21,11 / fast_pskip=1 / chroma_qp_offset=-2 / threads=3 / sliced_threads=0 / nr=0 / decimate=1 / interlaced=0 / bluray_compat=0 / constrained_intra=0 / bframes=3 / b_pyramid=2 / b_adapt=1 / b_bias=0 / direct=1 / weightb=1 / open_gop=0 / weightp=1 / keyint=250 / keyint_min=25 / scenecut=40 / intra_refresh=0 / rc_lookahead=30 / rc=abr / mbtree=1 / bitrate=8000 / ratetol=1.0 / qcomp=0.60 / qpmin=0 / qpmax=69 / qpstep=4 / ip_ratio=1.40 / aq=1:1.00
Язык : English
Default : Да
Forced : Нет
Аудио
Идентификатор : 2
Формат файла : AC-3
Формат файла/Информация : Audio Coding 3
Расширение режима : CM (complete main)
Параметр Endianness формата : Big
Идентификатор кодека : A_AC3
Продолжительность : 58 м.
Вид битрейта : Постоянный
Битрейт : 448 Кбит/сек
Каналы : 6 каналов
Расположение каналов : Front: L C R, Side: L R, LFE
Частота : 48,0 КГц
Битовая глубина : 16 бит
Метод сжатия : С потерями
Размер потока : 186 Мбайт (5%)
Заголовок : audio
Язык : Russian
Default : Да
Forced : Нет
Общее
Уникальный идентификатор : 202407919027405130162504602234151382815 (0x984658E3A55099E69B9B9F07DEFE2F1F)
Полное имя : S:\Строим из LEGO Mindstorms (HD)\16 Лего Робот, играющий в крестики-нолики .mkv
Формат файла : Matroska
Версия формата : Version 2
Размер файла : 1,43 Гбайт
Продолжительность : 16 м.
Общий поток : 12,4 Мбит/сек
Дата кодирования : UTC 2013-01-19 05:53:45
Программа кодирования : mkvmerge v4.8.0 ('I Got The...') сборка от May 24 2011 03:12:58
Библиотека кодирования : libebml v1.2.0 + libmatroska v1.1.0
Видео
Идентификатор : 1
Формат файла : AVC
Формат файла/Информация : Advanced Video Codec
Профиль формата : High@L4.1
Параметр CABAC формата : Да
Параметр ReFrames формата : 4 кадра
Идентификатор кодека : V_MPEG4/ISO/AVC
Продолжительность : 16 м.
Битрейт : 12,0 Мбит/сек
Ширина : 1280 пикселей
Высота : 720 пикселей
Соотношение сторон : 16:9
Режим частоты кадров : Постоянный
Частота кадров : 50,000 кадров/сек
Цветовое пространство : YUV
Субдискретизация насыщенности : 4:2:0
Битовая глубина : 8 бит
Тип развёртки : Прогрессивная
Бит/(Пиксели*Кадры) : 0.260
Размер потока : 1,35 Гбайт (94%)
Заголовок : video
Библиотека кодирования : x264 core 115 r1995 c1e60b9
Настройки программы : cabac=1 / ref=2 / deblock=1:0:0 / analyse=0x3:0x113 / me=hex / subme=6 / psy=1 / psy_rd=1.00:0.00 / mixed_ref=1 / me_range=16 / chroma_me=1 / trellis=1 / 8x8dct=1 / cqm=0 / deadzone=21,11 / fast_pskip=1 / chroma_qp_offset=-2 / threads=3 / sliced_threads=0 / nr=0 / decimate=1 / interlaced=0 / bluray_compat=0 / constrained_intra=0 / bframes=3 / b_pyramid=2 / b_adapt=1 / b_bias=0 / direct=1 / weightb=1 / open_gop=0 / weightp=1 / keyint=250 / keyint_min=25 / scenecut=40 / intra_refresh=0 / rc_lookahead=30 / rc=abr / mbtree=1 / bitrate=12000 / ratetol=1.0 / qcomp=0.60 / qpmin=0 / qpmax=69 / qpstep=4 / ip_ratio=1.40 / aq=1:1.00
Язык : English
Default : Да
Forced : Нет
Аудио
Идентификатор : 2
Формат файла : AC-3
Формат файла/Информация : Audio Coding 3
Расширение режима : CM (complete main)
Параметр Endianness формата : Big
Идентификатор кодека : A_AC3
Продолжительность : 16 м.
Вид битрейта : Постоянный
Битрейт : 448 Кбит/сек
Каналы : 6 каналов
Расположение каналов : Front: L C R, Side: L R, LFE
Частота : 48,0 КГц
Битовая глубина : 16 бит
Метод сжатия : С потерями
Размер потока : 53,1 Мбайт (4%)
Заголовок : audio
Язык : Russian
Default : Да
Forced : Нет
Общее
Уникальный идентификатор : 250001128932983361029183113578021827550 (0xBC14774E0585A069939EB330F87EB3DE)
Полное имя : S:\Строим из LEGO Mindstorms (HD)\22 Лего Робот - игровой автомат.mkv
Формат файла : Matroska
Версия формата : Version 2
Размер файла : 1,04 Гбайт
Продолжительность : 12 м.
Общий поток : 12,4 Мбит/сек
Дата кодирования : UTC 2013-01-20 05:40:22
Программа кодирования : mkvmerge v4.8.0 ('I Got The...') сборка от May 24 2011 03:12:58
Библиотека кодирования : libebml v1.2.0 + libmatroska v1.1.0
Видео
Идентификатор : 1
Формат файла : AVC
Формат файла/Информация : Advanced Video Codec
Профиль формата : High@L4.1
Параметр CABAC формата : Да
Параметр ReFrames формата : 4 кадра
Идентификатор кодека : V_MPEG4/ISO/AVC
Продолжительность : 12 м.
Битрейт : 12,0 Мбит/сек
Ширина : 1280 пикселей
Высота : 720 пикселей
Соотношение сторон : 16:9
Режим частоты кадров : Постоянный
Частота кадров : 50,000 кадров/сек
Цветовое пространство : YUV
Субдискретизация насыщенности : 4:2:0
Битовая глубина : 8 бит
Тип развёртки : Прогрессивная
Бит/(Пиксели*Кадры) : 0.260
Размер потока : 1008 Мбайт (94%)
Заголовок : video
Библиотека кодирования : x264 core 115 r1995 c1e60b9
Настройки программы : cabac=1 / ref=2 / deblock=1:0:0 / analyse=0x3:0x113 / me=hex / subme=6 / psy=1 / psy_rd=1.00:0.00 / mixed_ref=1 / me_range=16 / chroma_me=1 / trellis=1 / 8x8dct=1 / cqm=0 / deadzone=21,11 / fast_pskip=1 / chroma_qp_offset=-2 / threads=3 / sliced_threads=0 / nr=0 / decimate=1 / interlaced=0 / bluray_compat=0 / constrained_intra=0 / bframes=3 / b_pyramid=2 / b_adapt=1 / b_bias=0 / direct=1 / weightb=1 / open_gop=0 / weightp=1 / keyint=250 / keyint_min=25 / scenecut=40 / intra_refresh=0 / rc_lookahead=30 / rc=abr / mbtree=1 / bitrate=12000 / ratetol=1.0 / qcomp=0.60 / qpmin=0 / qpmax=69 / qpstep=4 / ip_ratio=1.40 / aq=1:1.00
Язык : English
Default : Да
Forced : Нет
Аудио
Идентификатор : 2
Формат файла : AC-3
Формат файла/Информация : Audio Coding 3
Расширение режима : CM (complete main)
Параметр Endianness формата : Big
Идентификатор кодека : A_AC3
Продолжительность : 12 м.
Вид битрейта : Постоянный
Битрейт : 448 Кбит/сек
Каналы : 6 каналов
Расположение каналов : Front: L C R, Side: L R, LFE
Частота : 48,0 КГц
Битовая глубина : 16 бит
Метод сжатия : С потерями
Размер потока : 38,6 Мбайт (4%)
Заголовок : audio
Язык : Russian
Default : Да
Forced : Нет
Общее
Уникальный идентификатор : 254321089900914064582094307410152504867 (0xBF5475D322EFB760B016085FE92BBE23)
Полное имя : S:\Строим из LEGO Mindstorms (HD)\01 Лего ШутерБот. Наш первый робот.mkv
Формат файла : Matroska
Версия формата : Version 2
Размер файла : 1,46 Гбайт
Продолжительность : 16 м.
Общий поток : 12,4 Мбит/сек
Дата кодирования : UTC 2013-01-19 06:02:37
Программа кодирования : mkvmerge v4.8.0 ('I Got The...') сборка от May 24 2011 03:12:58
Библиотека кодирования : libebml v1.2.0 + libmatroska v1.1.0
Видео
Идентификатор : 1
Формат файла : AVC
Формат файла/Информация : Advanced Video Codec
Профиль формата : High@L4.1
Параметр CABAC формата : Да
Параметр ReFrames формата : 4 кадра
Идентификатор кодека : V_MPEG4/ISO/AVC
Продолжительность : 16 м.
Битрейт : 12,0 Мбит/сек
Ширина : 1280 пикселей
Высота : 720 пикселей
Соотношение сторон : 16:9
Режим частоты кадров : Постоянный
Частота кадров : 50,000 кадров/сек
Цветовое пространство : YUV
Субдискретизация насыщенности : 4:2:0
Битовая глубина : 8 бит
Тип развёртки : Прогрессивная
Бит/(Пиксели*Кадры) : 0.260
Размер потока : 1,38 Гбайт (94%)
Заголовок : video
Библиотека кодирования : x264 core 115 r1995 c1e60b9
Настройки программы : cabac=1 / ref=2 / deblock=1:0:0 / analyse=0x3:0x113 / me=hex / subme=6 / psy=1 / psy_rd=1.00:0.00 / mixed_ref=1 / me_range=16 / chroma_me=1 / trellis=1 / 8x8dct=1 / cqm=0 / deadzone=21,11 / fast_pskip=1 / chroma_qp_offset=-2 / threads=3 / sliced_threads=0 / nr=0 / decimate=1 / interlaced=0 / bluray_compat=0 / constrained_intra=0 / bframes=3 / b_pyramid=2 / b_adapt=1 / b_bias=0 / direct=1 / weightb=1 / open_gop=0 / weightp=1 / keyint=250 / keyint_min=25 / scenecut=40 / intra_refresh=0 / rc_lookahead=30 / rc=2pass / mbtree=1 / bitrate=12000 / ratetol=1.0 / qcomp=0.60 / qpmin=0 / qpmax=69 / qpstep=4 / cplxblur=20.0 / qblur=0.5 / ip_ratio=1.40 / aq=1:1.00
Язык : English
Default : Да
Forced : Нет
Аудио
Идентификатор : 2
Формат файла : AC-3
Формат файла/Информация : Audio Coding 3
Расширение режима : CM (complete main)
Параметр Endianness формата : Big
Идентификатор кодека : A_AC3
Продолжительность : 16 м.
Вид битрейта : Постоянный
Битрейт : 448 Кбит/сек
Каналы : 6 каналов
Расположение каналов : Front: L C R, Side: L R, LFE
Частота : 48,0 КГц
Битовая глубина : 16 бит
Метод сжатия : С потерями
Размер потока : 53,8 Мбайт (4%)
Заголовок : audio
Язык : Russian
Default : Да
Forced : Нет
Общее
Уникальный идентификатор : 204406348027261157311613886020384499253 (0x99C73B0BCDA53E81BFE37E6BC134A635)
Полное имя : S:\Строим из LEGO Mindstorms (HD)\24a Фестиваль робототехники 2013. Подготовка.mkv
Формат файла : Matroska
Версия формата : Version 2
Размер файла : 2,66 Гбайт
Продолжительность : 31 м.
Общий поток : 12,3 Мбит/сек
Дата кодирования : UTC 2013-03-24 14:16:55
Программа кодирования : mkvmerge v4.8.0 ('I Got The...') сборка от May 24 2011 03:12:58
Библиотека кодирования : libebml v1.2.0 + libmatroska v1.1.0
Видео
Идентификатор : 1
Формат файла : AVC
Формат файла/Информация : Advanced Video Codec
Профиль формата : High@L4.1
Параметр CABAC формата : Да
Параметр ReFrames формата : 4 кадра
Идентификатор кодека : V_MPEG4/ISO/AVC
Продолжительность : 31 м.
Битрейт : 12,0 Мбит/сек
Ширина : 1280 пикселей
Высота : 720 пикселей
Соотношение сторон : 16:9
Режим частоты кадров : Постоянный
Частота кадров : 50,000 кадров/сек
Цветовое пространство : YUV
Субдискретизация насыщенности : 4:2:0
Битовая глубина : 8 бит
Тип развёртки : Прогрессивная
Бит/(Пиксели*Кадры) : 0.260
Размер потока : 2,51 Гбайт (94%)
Заголовок : video
Библиотека кодирования : x264 core 115 r1995 c1e60b9
Настройки программы : cabac=1 / ref=2 / deblock=1:0:0 / analyse=0x3:0x113 / me=hex / subme=6 / psy=1 / psy_rd=1.00:0.00 / mixed_ref=1 / me_range=16 / chroma_me=1 / trellis=1 / 8x8dct=1 / cqm=0 / deadzone=21,11 / fast_pskip=1 / chroma_qp_offset=-2 / threads=3 / sliced_threads=0 / nr=0 / decimate=1 / interlaced=0 / bluray_compat=0 / constrained_intra=0 / bframes=3 / b_pyramid=2 / b_adapt=1 / b_bias=0 / direct=1 / weightb=1 / open_gop=0 / weightp=1 / keyint=250 / keyint_min=25 / scenecut=40 / intra_refresh=0 / rc_lookahead=30 / rc=abr / mbtree=1 / bitrate=12000 / ratetol=1.0 / qcomp=0.60 / qpmin=0 / qpmax=69 / qpstep=4 / ip_ratio=1.40 / aq=1:1.00
Язык : English
Default : Да
Forced : Нет
Аудио
Идентификатор : 2
Формат файла : AC-3
Формат файла/Информация : Audio Coding 3
Расширение режима : CM (complete main)
Параметр Endianness формата : Big
Идентификатор кодека : A_AC3
Продолжительность : 31 м.
Вид битрейта : Постоянный
Битрейт : 448 Кбит/сек
Каналы : 6 каналов
Расположение каналов : Front: L C R, Side: L R, LFE
Частота : 48,0 КГц
Битовая глубина : 16 бит
Метод сжатия : С потерями
Размер потока : 99,5 Мбайт (4%)
Заголовок : audio
Язык : Russian
Default : Да
Forced : Нет
Общее
Уникальный идентификатор : 172452844182126592035592554449545697423 (0x81BD35AC4FAB4F2E940C0639C5EB988F)
Полное имя : S:\Строим из LEGO Mindstorms (HD)\26 Лего Робот-змея R3PTAR из NXT 2.0.mkv
Формат файла : Matroska
Версия формата : Version 2
Размер файла : 584 Мбайт
Продолжительность : 6 м. 39 с.
Общий поток : 12,3 Мбит/сек
Дата кодирования : UTC 2013-06-01 15:19:56
Программа кодирования : mkvmerge v4.8.0 ('I Got The...') сборка от May 24 2011 03:12:58
Библиотека кодирования : libebml v1.2.0 + libmatroska v1.1.0
Видео
Идентификатор : 1
Формат файла : AVC
Формат файла/Информация : Advanced Video Codec
Профиль формата : High@L4.1
Параметр CABAC формата : Да
Параметр ReFrames формата : 4 кадра
Идентификатор кодека : V_MPEG4/ISO/AVC
Продолжительность : 6 м. 39 с.
Битрейт : 12,0 Мбит/сек
Ширина : 1280 пикселей
Высота : 720 пикселей
Соотношение сторон : 16:9
Режим частоты кадров : Постоянный
Частота кадров : 50,000 кадров/сек
Цветовое пространство : YUV
Субдискретизация насыщенности : 4:2:0
Битовая глубина : 8 бит
Тип развёртки : Прогрессивная
Бит/(Пиксели*Кадры) : 0.260
Размер потока : 551 Мбайт (94%)
Заголовок : video
Библиотека кодирования : x264 core 115 r1995 c1e60b9
Настройки программы : cabac=1 / ref=2 / deblock=1:0:0 / analyse=0x3:0x113 / me=hex / subme=6 / psy=1 / psy_rd=1.00:0.00 / mixed_ref=1 / me_range=16 / chroma_me=1 / trellis=1 / 8x8dct=1 / cqm=0 / deadzone=21,11 / fast_pskip=1 / chroma_qp_offset=-2 / threads=3 / sliced_threads=0 / nr=0 / decimate=1 / interlaced=0 / bluray_compat=0 / constrained_intra=0 / bframes=3 / b_pyramid=2 / b_adapt=1 / b_bias=0 / direct=1 / weightb=1 / open_gop=0 / weightp=1 / keyint=250 / keyint_min=25 / scenecut=40 / intra_refresh=0 / rc_lookahead=30 / rc=abr / mbtree=1 / bitrate=12000 / ratetol=1.0 / qcomp=0.60 / qpmin=0 / qpmax=69 / qpstep=4 / ip_ratio=1.40 / aq=1:1.00
Язык : English
Default : Да
Forced : Нет
Аудио
Идентификатор : 2
Формат файла : AC-3
Формат файла/Информация : Audio Coding 3
Расширение режима : CM (complete main)
Параметр Endianness формата : Big
Идентификатор кодека : A_AC3
Продолжительность : 6 м. 39 с.
Вид битрейта : Постоянный
Битрейт : 448 Кбит/сек
Каналы : 6 каналов
Расположение каналов : Front: L C R, Side: L R, LFE
Частота : 48,0 КГц
Битовая глубина : 16 бит
Метод сжатия : С потерями
Размер потока : 21,3 Мбайт (4%)
Заголовок : audio
Default : Да
Forced : Нет
Общее
Уникальный идентификатор : 189606830716278708840323856476580066532 (0x8EA4F281D6C1A53DA4F928D60D63B4E4)
Полное имя : S:\Строим из LEGO Mindstorms (HD)\23 Лего Черепаха.mkv
Формат файла : Matroska
Версия формата : Version 2
Размер файла : 2,08 Гбайт
Продолжительность : 23 м.
Общий поток : 12,5 Мбит/сек
Дата кодирования : UTC 2013-02-24 06:57:30
Программа кодирования : mkvmerge v4.8.0 ('I Got The...') сборка от May 24 2011 03:12:58
Библиотека кодирования : libebml v1.2.0 + libmatroska v1.1.0

Скриншоты

1. Шутербот

2. Робогатор

3. Робот-сортировщик

4. АльфаРекс

5. Богомол Manty

6. Сегвей

7. Автобот

8. Гитара

9. Исследователь

10. Нападающий Коготь

11. Велосипедист

12a. Папай. Подготовка к фестивалю робототехники

12b. Фестиваль робототехники 2012. Самарская область

13. Дуэль

14. Собиратель Кубика Рубика

15a. Подготовка к областному турниру мобильных роботов. Карандаш и Самоделкин

15b. Областной турнир мобильных роботов. СГАУ, 08.11.2012

16. Робот, играющий в крестики-нолики

17. Морф

18. Робот-баскетболист NXTitzki

19. Первые шаги к футболу роботов

20. Проект "Робот, следующий по линии"

21. Робот NXTAPOD

22. Робот - игровой автомат

23. Робот Черепаха

24a. Подготовка к фестивалю робототехники 2013. Карандаш и Самоделкин

24b. Фестиваль робототехники 2013. Самарская область

25a. РОБОМИР 2013. Подготовка

25b. РОБОМИР 2013. Карандаш и Самоделкин в Москве

26. Робот-змея R3PTAR из NXT 2.0

27. Барабанная установка

28. Скачки

29. Робот Трипод

30. Лего Пинбол

31. Лего Скорпион 2.0

32. Обзор LEGO Mindstorms EV3


[geo-torrent.biz]_t_3919335.torrent
Torrent: Registered ·  [ 2017-02-19 09:24 ] ·  a0e9a391a11a09893bbe457e7d4dd9a2e715ad9f

136 KB

Status: checked
Completed: 0 times
Size: 52.98 GB
Rating: 
(Votes: 0)
Say thanks: 0  Thanks
Похожие темы
[Profile]    [PM]
Display posts from previous:    
Reply to topic

The time now is: Today 05:06

All times are GMT + 7 Hours



You cannot post new topics in this forum
You cannot reply to topics in this forum
You cannot edit your posts in this forum
You cannot delete your posts in this forum
You cannot vote in polls in this forum
You cannot attach files in this forum
You can download files in this forum