Бегство рогатых викингов (Илья Белостоцкий) [2018, семейный, комедия, детский, приключения, WEB-DLRip]

Reply to topic
DL-List and Torrent activity [Update пиров]
Size:  1.37 GB   |    Registered:  3 months 5 days   |    Completed:  0 times

Seeder not seen: Never

 
   
 
 
 
Author Message

SVP

Post 12-Jul-2019 00:55

[Quote]

Бегство рогатых викингов
Страна: Россия
Жанр: семейный, комедия, детский, приключения
Год выхода: 2018
Продолжительность: 01:10:18
Субтитры: нет-Режиссер:
Илья Белостоцкий-В ролях:
Евгений Олещук, Илья Плясухин, Даша Чистякова, Мирослав Быков, Никита Смирнов, Никита Липунов, Алексей Ломакин, Алина Бабушкина, Артём Кожевников, Андрей Лауфер-Описание:
Ещё один день, и Джонни Воробьёву исполнится девять лет. Тогда он наконец-то освободится от своего летнего "рабства" в летнем лагере под присмотром несносной старшей сестры и сможет спокойно проводить каникулы с своими друзьями. Но Джонни даёт благородное обещание остановить зловредного Тольку Самохина и его банду рогатых викингов и прекратить их набеги на ребятишек по всей округе.-Качество видео: WEB-DLRip
Формат файла: AVI
Видео: 688x384 (1.79:1), 24.000 fps, XviD build 73 ~2390 kbps avg, 0.38 bit/pixel
Аудио: 48 kHz, AC3 Dolby Digital, 3/2 (L,C,R,l,r) + LFE ch, ~384 kbps - iTunes-

Сэмпл-

MediaInfo

Формат файла                                   : AVI
Формат файла/Информация                        : Audio Video Interleave
Размер файла                             : 1,37 Гбайт
Продолжительность                        : 1 ч. 10 м.
Общий поток                              : 2784 Кбит/сек
Название фильма                          : Бегство рогатых викингов_2018_WEB-DLRip
Программа кодирования                    : VirtualDubMod 1.5.10.3 | www.virtualdub-fr.org || (build 2550/release)
Авторское право                          : порошков
Видео
Идентификатор                            : 0
Формат файла                                   : MPEG-4 Visual
Профиль формата                          : Advanced Simple@L5
Настройки формата                        : BVOP1 / Custom Matrix
Параметр BVOP формата                    : 1
Параметр QPel формата                    : Нет
Параметр GMC формата                     : Без точки перехода
Параметр матрицы формата                 : Выборочная
Идентификатор кодека                     : XVID
Идентификатор кодека/Подсказка           : XviD
Продолжительность                        : 1 ч. 10 м.
Битрейт                                  : 2390 Кбит/сек
Ширина                                   : 688 пикселей
Высота                                   : 384 пикселя
Соотношение сторон                       : 16:9
Частота кадров                           : 24,000 кадра/сек
Цветовое пространство                    : YUV
Субдискретизация насыщенности            : 4:2:0
Битовая глубина                          : 8 бит
Тип развёртки                            : Прогрессивная
Метод сжатия                             : С потерями
Бит/(Пиксели*Кадры)                      : 0.377
Размер потока                            : 1,17 Гбайт (86%)
Библиотека кодирования                   : XviD 73
Аудио
Идентификатор                            : 1
Формат файла                                   : AC-3
Формат файла/Информация                        : Audio Coding 3
Коммерческое название                    : Dolby Digital
Идентификатор кодека                     : 2000
Продолжительность                        : 1 ч. 10 м.
Вид битрейта                             : Постоянный
Битрейт                                  : 384 Кбит/сек
Каналы                                   : 6 каналов
ChannelLayout                            : L R C LFE Ls Rs
Частота                                  : 48,0 КГц
Частота кадров                           : 31,250 кадров/сек (1536 SPF)
Битовая глубина                          : 16 бит
Метод сжатия                             : С потерями
Размер потока                            : 193 Мбайт (14%)
Выравнивание                             : Разделение по промежуткам
Продолжительность промежутка             : 42  мс. (1,00 видеокадр)
Время предзагрузки промежутка            : 500  мс.
ServiceKind/String                       : Complete Main

Скриншоты




[geo-torrent.biz]_t_5754081.torrent
Torrent: Registered ·  [ 2019-07-12 00:55 ] ·  12037481fb166289ccbc39e3667872fdb447095d

14 KB

Status: checked
Completed: 0 times
Size: 1.37 GB
Rating: 
(Votes: 0)
Say thanks: 0  Thanks
Похожие темы
[Profile]    [PM]
Display posts from previous:    
Reply to topic

The time now is: Today 04:37

All times are GMT + 7 Hours



You cannot post new topics in this forum
You cannot reply to topics in this forum
You cannot edit your posts in this forum
You cannot delete your posts in this forum
You cannot vote in polls in this forum
You cannot attach files in this forum
You can download files in this forum