Так ему и надо / Пусть получит свое / Let Him Have It (Питер Медак / Peter Medak) [1991, Великобритания, Франция, драма, криминал, SATRip] MVO

Reply to topic
DL-List and Torrent activity [Update пиров]
Size:  2.04 GB   |    Registered:  4 months 7 days   |    Completed:  1 time

Seeder not seen: 4 months

 
   
 
 
 
Author Message

Кейт

Post 06-Aug-2019 22:30

[Quote]

Так ему и надо / Пусть получит свое / Let Him Have It
Страна: Великобритания, Франция
Жанр: драма, криминал
Год выхода: 1991
Продолжительность: 01:49:54
Перевод: Профессиональный (многоголосый закадровый)
Субтитры: нет
Режиссер: Питер Медак / Peter Medak
В ролях: Кристофер Экклстон, Пол Рейнолдс, Эйлин Эткинс, Том Белл, Клэр Холмэн, Джек Дим, Берт Тайлер Мур, Питер Эйри, Джеймс Вильерс, Рональд Фрейзер, Клайв Ревилл
Описание: Жесткая криминальная драма. Мальчишки послевоенной Англии страшно хотят быть гангстерами. Один из них, Крэйг, тяжело переживая разлуку со старшим братом, матерым преступником, осужденным на 20 лет, подбивает Дерека, юношу умственно неполноценного, участвовать в преступлениях. Во время одного из таких предприятий Крэйг убил полицейского, что потрясло Дерека, толком не отдававшего себе отчет в том, что происходило. Дерек даже пытался остановить Крэйга, но тот готов был убить и его. Обоих мальчишек (Крэйг спал с пистолетом и игрушками) арестовали и судили. Убийцу Крэйга посадили в тюрьму, так как ему не было 16 лет, а полоумного Дерека (его даже в армию не взяли) приговорили к повешению. Фильм, поставленный по реальным событиям, отличается психологической глубиной и великолепной игрой лучших британских актеров. (М. Иванов)
Доп. информация: За предоставленный рип благодарим Ledy_X
"Спасибы" просьба ПИСАТЬ в теме, тем самым вы продлеваете жизнь раздаче.

Сэмпл: http://yadi.sk/i/v_Eubh_YUv5jS
Качество видео: SATRip
Формат файла: AVI
Видео: 720x544 (1.32:1), 25 fps, XviD build 50 ~2271 kbps avg, 0.23 bit/pixel
Аудио: 48 kHz, AC3 Dolby Digital, 2/0 (L,R) ch, ~384 kbps

MediaInfo

Пусть получит свое - Let Him Have It [by Ledy_X].avi
Format : AVI
Format/Info : Audio Video Interleave
Format profile : OpenDML
File size : 2.04 GiB
Duration : 1h 49mn
Overall bit rate : 2 663 Kbps
Movie name : Пусть получит свое - Let Him Have It [by Ledy_X]
Director : Rip by Ledy_X
Writing application : VirtualDubMod 1.5.10.3 | www.virtualdub-fr.org || (build 2550/release)
Copyright : Edich2
Comment :
Video
ID : 0
Format : MPEG-4 Visual
Format profile : Advanced Simple@L5
Format settings, BVOP : 2
Format settings, QPel : No
Format settings, GMC : No warppoints
Format settings, Matrix : Default (MPEG)
Codec ID : XVID
Codec ID/Hint : XviD
Duration : 1h 49mn
Bit rate : 2 266 Kbps
Width : 720 pixels
Height : 544 pixels
Display aspect ratio : 4:3
Frame rate : 25.000 fps
Color space : YUV
Chroma subsampling : 4:2:0
Bit depth : 8 bits
Scan type : Progressive
Compression mode : Lossy
Bits/(Pixel*Frame) : 0.231
Stream size : 1.74 GiB (85%)
Writing library : XviD 1.2.1 (UTC 2008-12-04)
Audio
ID : 1
Format : AC-3
Format/Info : Audio Coding 3
Mode extension : CM (complete main)
Format settings, Endianness : Big
Codec ID : 2000
Duration : 1h 49mn
Bit rate mode : Constant
Bit rate : 384 Kbps
Channel(s) : 2 channels
Channel positions : Front: L R
Sampling rate : 48.0 KHz
Bit depth : 16 bits
Compression mode : Lossy
Stream size : 302 MiB (14%)
Alignment : Split accross interleaves
Interleave, duration : 40 ms (1.00 video frame)
Interleave, preload duration : 500 ms

Скриншоты




[geo-torrent.biz]_t_4770227.torrent
Torrent: Registered ·  [ 2019-08-06 22:30 ] ·  b818ad7f744f8d3d298e9d06cd86f85d705b7da3

11 KB

Status: checked
Completed: 1 times
Size: 2.04 GB
Rating: 
(Votes: 0)
Say thanks: 0  Thanks
Похожие темы
[Profile]    [PM]
Display posts from previous:    
Reply to topic

The time now is: Today 03:46

All times are GMT + 7 Hours



You cannot post new topics in this forum
You cannot reply to topics in this forum
You cannot edit your posts in this forum
You cannot delete your posts in this forum
You cannot vote in polls in this forum
You cannot attach files in this forum
You can download files in this forum