Хроники Риддика / The Chronicles of Riddick (Дэвид Туи / David Twohy) [2004, США, фантастика, боевик, WEBRip-AVC] [Театральная версия / Theatrical Cut] [Open Matte] 2x DUB + Sub Rus Eng + Original Eng

Reply to topic
DL-List and Torrent activity [Update пиров]
Size:  2.72 GB   |    Registered:  6 months 16 days   |    Completed:  0 times

Seeder not seen: Never

 
   
 
 
 
Author Message

Пушистый

Post 06-Aug-2019 22:31

[Quote]

Хроники Риддика [Театральная версия] / The Chronicles of Riddick [Theatrical Cut] / Open Matte
-Часть I | Часть II-Год выхода: 2004
Страна: США
Жанр: фантастика, боевик
Продолжительность: 01:59:12
Перевод: Профессиональный (дублированный)
Перевод 2: Профессиональный (дублированный) ТВ-3
Субтитры: русские, английские
Оригинальная аудиодорожка: английский
Режиссер: Дэвид Туи / David Twohy
В ролях: Вин Дизель, Колм Фиор, Тэнди Ньютон, Джуди Денч, Карл Урбан, Алекса Давалос, Лайнас Роуч
Описание: Последние пять лет Риддик провел в бегах среди забытых миров на задворках галактики, прячась от наемников, назначивших цену за его голову. Теперь беглец оказался на планете Гелион, где живет прогрессивное многонациональное общество, завоеванное лордом Маршалом, фанатиком, решившим поработить человечество армадой своих воинов, некромонгеров.
Совершив побег из подземной тюрьмы, где температура колебалась от арктических ночей до вулканических дней, Риддик встречает Кайру, последнюю оставшуюся в живых женщину из раннего периода его жизни. Его попытки освободить себя и Кайру приводят их на борт главного корабля некромонгеров, где ему предстоит столкнуться с лордом Маршалом в апокалиптической битве не на жизнь, а на смерть.
Доп. информация: Источник: none с онлайн-кинотеатра Amazon STARZ (Периодически появляется логотип)
Различия BD и WEBRip - разное наполнение кадра - 16:9 (1.78:1)
Фильмы в Fullscreen (4:3) и Open Matte (16:9) форматах
Сэмпл: http://multi-up.com/1236926
Качество видео: WEBRip-AVC [Хроники Риддика.2004.1080p.AMZN.WEB-DL.DDP5.1.H.264.mkv]
Формат файла: MKV
Видео: MPEG-4 AVC/H.264 / 2180 kbps / 1088x612 / 23.976 fps
Аудио: DUB (Rus) / AC3 / 6 ch / 448 kbps / 48 kHz
Аудио 2: DUB ТВ-3 (Rus) / AC3 / 2 ch / 192 kbps / 48 kHz - отдельно
Аудио 3: Original (Eng) / AC3 / 6 ch / 448 kbps / 48 kHz - отдельно
Формат файла субтитров: softsub (SRT)
Доп. информация о субтитрах: Русские (full), Английские (full)
#Сохранены оригинальные чаптеры как на Blu-ray

Log

x264 [info]: frame I:1427 Avg QP:16.04 size: 78620
x264 [info]: frame P:51032 Avg QP:19.15 size: 21052
x264 [info]: frame B:118862 Avg QP:20.81 size: 6268

MediaInfo

General
Unique ID : 188410621496046577060549551989583267258 (0x8DBE90D6D374737CA1D6EB6B24C845BA)
Complete name : I:\\Хроники Риддика (2004) WEBRip-AVC (Театральная версия) [Open Matte]\Хроники Риддика (2004) WEBRip-AVC (Театральная версия) [Open Matte].mkv
Format : Matroska
Format version : Version 2
File size : 2.19 GiB
Duration : 1 h 59 min
Overall bit rate : 2 626 kb/s
Movie name : Хроники Риддика [Театральная версия] / The Chronicles of Riddick [Theatrical Cut] (2004) [Open Matte]
Encoded date : UTC 2019-07-03 21:12:39
Writing application : mkvmerge v5.5.0 ('Healer') built on Apr 24 2012 23:47:03
Writing library : libebml v1.2.3 + libmatroska v1.3.0
Attachments : poster.jpg
Video
ID : 1
Format : AVC
Format/Info : Advanced Video Codec
Format profile : High@L3.1
Format settings : CABAC / 8 Ref Frames
Format settings, CABAC : Yes
Format settings, ReFrames : 8 frames
Codec ID : V_MPEG4/ISO/AVC
Duration : 1 h 59 min
Bit rate : 2 180 kb/s
Width : 1 088 pixels
Height : 614 pixels
Display aspect ratio : 16:9
Frame rate mode : Constant
Frame rate : 23.976 (24000/1001) FPS
Color space : YUV
Chroma subsampling : 4:2:0
Bit depth : 8 bits
Scan type : Progressive
Bits/(Pixel*Frame) : 0.136
Stream size : 1.77 GiB (81%)
Title : WEBRip (AVC) / MPEG-4 AVC/H.264 / 2180 kbps / 1088x612 / 23.976 fps
Writing library : x264 core 146 r2538 121396c
Encoding settings : cabac=1 / ref=8 / deblock=1:0:0 / analyse=0x3:0x113 / me=umh / subme=10 / psy=1 / psy_rd=1.00:0.00 / mixed_ref=1 / me_range=32 / chroma_me=1 / trellis=2 / 8x8dct=1 / cqm=0 / deadzone=21,11 / fast_pskip=0 / chroma_qp_offset=-2 / threads=6 / lookahead_threads=1 / sliced_threads=0 / nr=0 / decimate=1 / interlaced=0 / bluray_compat=0 / constrained_intra=0 / bframes=9 / b_pyramid=2 / b_adapt=2 / b_bias=0 / direct=3 / weightb=1 / open_gop=0 / weightp=2 / keyint=250 / keyint_min=23 / scenecut=40 / intra_refresh=0 / rc_lookahead=50 / rc=2pass / mbtree=1 / bitrate=2180 / ratetol=1.0 / qcomp=0.60 / qpmin=0 / qpmax=69 / qpstep=4 / cplxblur=20.0 / qblur=0.5 / vbv_maxrate=14000 / vbv_bufsize=14000 / nal_hrd=none / filler=0 / ip_ratio=1.40 / aq=1:1.00
Language : English
Default : Yes
Forced : Yes
Audio
ID : 2
Format : AC-3
Format/Info : Audio Coding 3
Commercial name : Dolby Digital
Codec ID : A_AC3
Duration : 1 h 59 min
Bit rate mode : Constant
Bit rate : 448 kb/s
Channel(s) : 6 channels
Channel layout : L R C LFE Ls Rs
Sampling rate : 48.0 kHz
Frame rate : 31.250 FPS (1536 SPF)
Bit depth : 16 bits
Compression mode : Lossy
Stream size : 382 MiB (17%)
Title : DUB (Rus) / AC3 / 6 ch / 448 kbps / 48 kHz
Language : Russian
Service kind : Complete Main
Default : Yes
Forced : Yes
Text #1
ID : 3
Format : UTF-8
Codec ID : S_TEXT/UTF8
Codec ID/Info : UTF-8 Plain Text
Title : Full (Rus) / S_TEXT/UTF8
Language : Russian
Default : No
Forced : No
Text #2
ID : 4
Format : UTF-8
Codec ID : S_TEXT/UTF8
Codec ID/Info : UTF-8 Plain Text
Title : Full (Eng) / S_TEXT/UTF8
Language : English
Default : No
Forced : No
Menu
00:00:00.000 : en:00:00:00.000
00:06:27.887 : en:00:06:27.887
00:12:27.580 : en:00:12:27.580
00:19:08.772 : en:00:19:08.772
00:22:30.265 : en:00:22:30.265
00:29:47.577 : en:00:29:47.577
00:36:26.517 : en:00:36:26.517
00:47:00.776 : en:00:47:00.776
00:53:09.019 : en:00:53:09.019
00:57:10.301 : en:00:57:10.301
01:04:42.920 : en:01:04:42.920
01:10:07.036 : en:01:10:07.036
01:15:26.438 : en:01:15:26.438
01:22:33.365 : en:01:22:33.365
01:30:59.328 : en:01:30:59.328

Источник: none с другими раздачами

Данный релиз

BDRip-AVC -> http:///forum/viewtopic.php?t=4207509

Скриншот c названием фильма

Скриншоты

Цитата: писал(а):

  • Звуковая дорожка №2 взята из раздачи пользователя [url=profile.php?mode=viewprofile&u=18484023]Liu Jian[/url]


[geo-torrent.biz]_t_5756417.torrent
Torrent: Registered ·  [ 2019-08-06 22:30 ] ·  6ad1a0cad845e81f965453d7ff25fb9fb9175b34

15 KB

Status: checked
Completed: 0 times
Size: 2.72 GB
Rating: 
(Votes: 0)
Say thanks: 0  Thanks
Похожие темы
[Profile]    [PM]
Display posts from previous:    
Reply to topic

The time now is: Today 12:26

All times are GMT + 7 Hours



You cannot post new topics in this forum
You cannot reply to topics in this forum
You cannot edit your posts in this forum
You cannot delete your posts in this forum
You cannot vote in polls in this forum
You cannot attach files in this forum
You can download files in this forum