(Post-hardcore, Avant-garde Metal) [CD] Iceburn - Firon - 1992, FLAC (image+.cue), lossless

Reply to topic
DL-List and Torrent activity [Update пиров]
Size:  433 MB   |    Registered:  2 months   |    Completed:  0 times

Seeder not seen: Never

 
   
 
 
 
Author Message

Пушистый

Post 13-Aug-2019 23:01

[Quote]

Iceburn / Firon
Жанр: Post-hardcore, Avant-garde Metal
Носитель: CD
Страна-производитель диска (релиза): us
Год издания: 1992
Издатель (лейбл): Victory Records
Номер по каталогу: VR08CD
Страна исполнителя (группы): us
Аудиокодек: FLAC (*.flac)
Тип рипа: image+.cue
Продолжительность: 0:59:35
Источник: soulseek
Наличие сканов в содержимом раздачи: нет
Треклист:
01 Burn II
02 Irish Jig
03 Fall
04 Soulstice
05 Winter
06 64246
07 Burn I
08 Odd
09 Drop
10 Guts
11 Poem Of Fire

Лог создания рипа

Exact Audio Copy V1.0 beta 6 from 9. April 2015
EAC extraction logfile from 24. May 2015, 19:50
Iceburn / Firon
Used drive : HL-DT-STBDDVDRW CH08LS10 Adapter: 1 ID: 0
Read mode : SecureUtilize accurate stream : YesDefeat audio cache : YesMake use of C2 pointers : No
Read offset correction : 667Overread into Lead-In and Lead-Out : NoFill up missing offset samples with silence : YesDelete leading and trailing silent blocks : NoNull samples used in CRC calculations : YesUsed interface : Native Win32 interface for Win NT & 2000
Used output format : User Defined EncoderSelected bitrate : 768 kBit/sQuality : HighAdd ID3 tag : NoCommand line compressor : C:\Program Files (x86)\Exact Audio Copy\Flac\flac.exeAdditional command line options : -8 -V -T "ARTIST=%artist%" -T "TITLE=%title%" -T "ALBUM=%albumtitle%" -T "DATE=%year%" -T "TRACKNUMBER=%tracknr%" -T "TOTALTRACKS=%numtracks%" -T "GENRE=%genre%" -T "ALBUM ARTIST=%albumartist%" -T "ALBUMARTIST=%albumartist%" -T "COMMENT=EAC V1.0 beta 6, Secure Mode, Test & Copy, AccurateRip, FLAC -8" %source%
TOC of the extracted CD
Track | Start | Length | Start sector | End sector --------------------------------------------------------- 1 | 0:00.00 | 7:28.35 | 0 | 33634 2 | 7:28.35 | 1:08.32 | 33635 | 38766 3 | 8:36.67 | 4:00.25 | 38767 | 56791 4 | 12:37.17 | 1:24.40 | 56792 | 63131 5 | 14:01.57 | 7:52.38 | 63132 | 98569 6 | 21:54.20 | 1:11.72 | 98570 | 103966 7 | 23:06.17 | 5:20.70 | 103967 | 128036 8 | 28:27.12 | 5:48.05 | 128037 | 154141 9 | 34:15.17 | 7:29.35 | 154142 | 187851 10 | 41:44.52 | 9:57.15 | 187852 | 232641 11 | 51:41.67 | 7:53.40 | 232642 | 268156
Range status and errors
Selected range
Filename C:\Iceburn (1992) Firon [VR08CD]\Iceburn - Firon.wav
Peak level 100.0 % Extraction speed 2.2 X Range quality 100.0 % Test CRC BDD3F0E4 Copy CRC BDD3F0E4 Copy OK
No errors occurred
AccurateRip summary
Track 1 cannot be verified as accurate (confidence 2) [C6B07801], AccurateRip returned [E2A7F6F6] (AR v2)Track 2 cannot be verified as accurate (confidence 2) [06E597CE], AccurateRip returned [EB3ADAA1] (AR v2)Track 3 cannot be verified as accurate (confidence 2) [1A704F55], AccurateRip returned [C8655FEF] (AR v2)Track 4 cannot be verified as accurate (confidence 2) [75C416B3], AccurateRip returned [B6F587EB] (AR v2)Track 5 cannot be verified as accurate (confidence 2) [BDD3D12E], AccurateRip returned [C6078BEC] (AR v2)Track 6 cannot be verified as accurate (confidence 2) [C4E1EB34], AccurateRip returned [16EC5EBD] (AR v2)Track 7 cannot be verified as accurate (confidence 2) [3789B90B], AccurateRip returned [8661EFB0] (AR v2)Track 8 cannot be verified as accurate (confidence 2) [6A0ED38C], AccurateRip returned [99539BBE] (AR v2)Track 9 cannot be verified as accurate (confidence 2) [F0497245], AccurateRip returned [71833A0F] (AR v2)Track 10 cannot be verified as accurate (confidence 2) [D12C9EA1], AccurateRip returned [13D8E26F] (AR v2)Track 11 cannot be verified as accurate (confidence 2) [C3A4E890], AccurateRip returned [9D4A4332] (AR v2)
No tracks could be verified as accurateYou may have a different pressing from the one(s) in the database
End of status report
---- CUETools DB Plugin V2.1.6
[CTDB TOCID: YkahY1sQ.R5Vt5iHwkD3Q4cZevc-] foundSubmit result: YkahY1sQ.R5Vt5iHwkD3Q4cZevc- has been confirmedTrack | CTDB Status 1 | (1/1) Accurately ripped 2 | (1/1) Accurately ripped 3 | (1/1) Accurately ripped 4 | (1/1) Accurately ripped 5 | (1/1) Accurately ripped 6 | (1/1) Accurately ripped 7 | (1/1) Accurately ripped 8 | (1/1) Accurately ripped 9 | (1/1) Accurately ripped 10 | (1/1) Accurately ripped 11 | (1/1) Accurately ripped
==== Log checksum 14845239797FB8BE4BE2EE343762776BA7CC2A39D1A927319024FE60FAEFF820 ====
------------------------------------------------------------
Exact Audio Copy V1.0 beta 6 from 9. April 2015
EAC extraction logfile from 24. May 2015, 19:51
Iceburn / Firon
Used drive : HL-DT-STBDDVDRW CH08LS10 Adapter: 1 ID: 0
Read mode : SecureUtilize accurate stream : YesDefeat audio cache : YesMake use of C2 pointers : No
Read offset correction : 667Overread into Lead-In and Lead-Out : NoFill up missing offset samples with silence : YesDelete leading and trailing silent blocks : NoNull samples used in CRC calculations : YesUsed interface : Native Win32 interface for Win NT & 2000
Used output format : User Defined EncoderSelected bitrate : 768 kBit/sQuality : HighAdd ID3 tag : NoCommand line compressor : C:\Program Files (x86)\Exact Audio Copy\Flac\flac.exeAdditional command line options : -8 -V -T "ARTIST=%artist%" -T "TITLE=%title%" -T "ALBUM=%albumtitle%" -T "DATE=%year%" -T "TRACKNUMBER=%tracknr%" -T "TOTALTRACKS=%numtracks%" -T "GENRE=%genre%" -T "ALBUM ARTIST=%albumartist%" -T "ALBUMARTIST=%albumartist%" -T "COMMENT=EAC V1.0 beta 6, Secure Mode, Test & Copy, AccurateRip, FLAC -8" %source%
TOC of the extracted CD
Track | Start | Length | Start sector | End sector --------------------------------------------------------- 1 | 0:00.00 | 7:28.35 | 0 | 33634 2 | 7:28.35 | 1:08.32 | 33635 | 38766 3 | 8:36.67 | 4:00.25 | 38767 | 56791 4 | 12:37.17 | 1:24.40 | 56792 | 63131 5 | 14:01.57 | 7:52.38 | 63132 | 98569 6 | 21:54.20 | 1:11.72 | 98570 | 103966 7 | 23:06.17 | 5:20.70 | 103967 | 128036 8 | 28:27.12 | 5:48.05 | 128037 | 154141 9 | 34:15.17 | 7:29.35 | 154142 | 187851 10 | 41:44.52 | 9:57.15 | 187852 | 232641 11 | 51:41.67 | 7:53.40 | 232642 | 268156
Range status and errors
Selected range
Filename C:\Iceburn (1992) Firon [VR08CD]\Iceburn - Firon.wav
Peak level 100.0 % Extraction speed 2.2 X Range quality 100.0 % Test CRC BDD3F0E4 Copy CRC BDD3F0E4 Copy OK
No errors occurred
AccurateRip summary
Track 1 cannot be verified as accurate (confidence 2) [C6B07801], AccurateRip returned [E2A7F6F6] (AR v2)Track 2 cannot be verified as accurate (confidence 2) [06E597CE], AccurateRip returned [EB3ADAA1] (AR v2)Track 3 cannot be verified as accurate (confidence 2) [1A704F55], AccurateRip returned [C8655FEF] (AR v2)Track 4 cannot be verified as accurate (confidence 2) [75C416B3], AccurateRip returned [B6F587EB] (AR v2)Track 5 cannot be verified as accurate (confidence 2) [BDD3D12E], AccurateRip returned [C6078BEC] (AR v2)Track 6 cannot be verified as accurate (confidence 2) [C4E1EB34], AccurateRip returned [16EC5EBD] (AR v2)Track 7 cannot be verified as accurate (confidence 2) [3789B90B], AccurateRip returned [8661EFB0] (AR v2)Track 8 cannot be verified as accurate (confidence 2) [6A0ED38C], AccurateRip returned [99539BBE] (AR v2)Track 9 cannot be verified as accurate (confidence 2) [F0497245], AccurateRip returned [71833A0F] (AR v2)Track 10 cannot be verified as accurate (confidence 2) [D12C9EA1], AccurateRip returned [13D8E26F] (AR v2)Track 11 cannot be verified as accurate (confidence 2) [C3A4E890], AccurateRip returned [9D4A4332] (AR v2)
No tracks could be verified as accurateYou may have a different pressing from the one(s) in the database
End of status report
---- CUETools DB Plugin V2.1.6
[CTDB TOCID: YkahY1sQ.R5Vt5iHwkD3Q4cZevc-] foundSubmit result: YkahY1sQ.R5Vt5iHwkD3Q4cZevc- has been confirmedTrack | CTDB Status 1 | (1/1) Accurately ripped 2 | (1/1) Accurately ripped 3 | (1/1) Accurately ripped 4 | (1/1) Accurately ripped 5 | (1/1) Accurately ripped 6 | (1/1) Accurately ripped 7 | (1/1) Accurately ripped 8 | (1/1) Accurately ripped 9 | (1/1) Accurately ripped 10 | (1/1) Accurately ripped 11 | (1/1) Accurately ripped
==== Log checksum 56A9B63A1BB6D83D211F335C505B2F76A4AD814B549C32F3AD09F2BDCE367E77 ====

Содержание индексной карты (.CUE)

REM GENRE HardcoreREM DATE 1992REM DISCID 8F0DF70BREM COMMENT "ExactAudioCopy v1.0b6"PERFORMER "Iceburn"TITLE "Firon"FILE "Iceburn - Firon.flac" WAVE TRACK 01 AUDIO TITLE "Burn II" PERFORMER "Iceburn" INDEX 01 00:00:00 TRACK 02 AUDIO TITLE "Irish Jig" PERFORMER "Iceburn" INDEX 00 07:26:28 INDEX 01 07:28:35 TRACK 03 AUDIO TITLE "Fall" PERFORMER "Iceburn" INDEX 01 08:36:67 TRACK 04 AUDIO TITLE "Solstice" PERFORMER "Iceburn" INDEX 00 12:34:23 INDEX 01 12:37:17 TRACK 05 AUDIO TITLE "Winter" PERFORMER "Iceburn" INDEX 01 14:01:57 TRACK 06 AUDIO TITLE "64246" PERFORMER "Iceburn" INDEX 00 21:52:33 INDEX 01 21:54:20 TRACK 07 AUDIO TITLE "Burn I" PERFORMER "Iceburn" INDEX 00 23:03:38 INDEX 01 23:06:17 TRACK 08 AUDIO TITLE "Odd" PERFORMER "Iceburn" INDEX 00 28:25:16 INDEX 01 28:27:12 TRACK 09 AUDIO TITLE "Drop" PERFORMER "Iceburn" INDEX 00 34:14:30 INDEX 01 34:15:17 TRACK 10 AUDIO TITLE "Guts" PERFORMER "Iceburn" INDEX 00 41:41:53 INDEX 01 41:44:52 TRACK 11 AUDIO TITLE "Poem of Fire" PERFORMER "Iceburn" INDEX 00 51:39:05 INDEX 01 51:41:67

Об альбоме (сборнике)

Recorded at Sam Foster's in June-September of 1991.
Douglas Wright actually played bass on this recording.
Within the lyrics for "Winter", some pieces by classical composer Antonio Vivaldi are credited: "I intro from Vivaldi's 1'inverno (winter) THEME 1 II coldnessensues", "III scherzo and trio IV warmthscape", and "THEME 2 also from Vivaldi V reendtro"
Track 11 is a bonus track that is not on the vinyl, only on the cd version.


[geo-torrent.biz]_t_5765589.torrent
Torrent: Registered ·  [ 2019-08-13 23:01 ] ·  0b40255eaebbda4bcaa92a956d65fddfb632732a

34 KB

Status: checked
Completed: 0 times
Size: 433 MB
Rating: 
(Votes: 0)
Say thanks: 0  Thanks
Похожие темы
[Profile]    [PM]
Display posts from previous:    
Reply to topic

The time now is: Today 18:13

All times are GMT + 7 Hours



You cannot post new topics in this forum
You cannot reply to topics in this forum
You cannot edit your posts in this forum
You cannot delete your posts in this forum
You cannot vote in polls in this forum
You cannot attach files in this forum
You can download files in this forum