(Avant-Prog / Jazz-Rock) [CD] Les Comptes de Korsakoff - Nos Amers - 2018, FLAC (tracks+.cue), lossless

Reply to topic
DL-List and Torrent activity [Update пиров]
Size:  298 MB   |    Registered:  4 months   |    Completed:  0 times

Seeder not seen: Never

 
   
 
 
 
Author Message

Пушистый

Post 14-Aug-2019 00:03

[Quote]

Les Comptes de Korsakoff / Nos Amers
Жанр: Avant-Prog / Jazz-Rock
Носитель: CD
Страна-производитель диска (релиза): France
Год издания: 2018
Издатель (лейбл): Label Puzzle
Номер по каталогу: 05041985009
Страна исполнителя (группы): France
Аудиокодек: FLAC (*.flac)
Тип рипа: tracks+.cue
Продолжительность: 47:42 min
Источник: собственная покупка
Наличие сканов в содержимом раздачи: [600dpi]
Треклист:
1. Le Maudit. 7:12
2. Carrousel. 1:52
3. Terminal. 7:58
4. Murmures à l'Oreilles des Monstres. 6:50
5. Père et Fille. 3:56
6. Bateau qui Coule. 6:09
7. Antidote. 3:55
8. Le Double. 9:46

Лог создания рипа

Exact Audio Copy V1.0 beta 4 from 7. December 2014
EAC extraction logfile from 10. August 2019, 21:57
Les Comptes de Korsakoff / Nos Amers
Used drive : ATAPI iHAS124 E Adapter: 1 ID: 0
Read mode : SecureUtilize accurate stream : YesDefeat audio cache : YesMake use of C2 pointers : No
Read offset correction : 6Overread into Lead-In and Lead-Out : NoFill up missing offset samples with silence : YesDelete leading and trailing silent blocks : NoNull samples used in CRC calculations : YesUsed interface : Native Win32 interface for Win NT & 2000Gap handling : Appended to previous track
Used output format : Internal WAV RoutinesSample format : 44.100 Hz; 16 Bit; Stereo
TOC of the extracted CD
Track | Start | Length | Start sector | End sector --------------------------------------------------------- 1 | 0:01.30 | 7:12.32 | 105 | 32536 2 | 7:13.62 | 1:52.42 | 32537 | 40978 3 | 9:06.29 | 7:58.19 | 40979 | 76847 4 | 17:04.48 | 6:50.19 | 76848 | 107616 5 | 23:54.67 | 3:58.11 | 107617 | 125477 6 | 27:53.03 | 6:09.02 | 125478 | 153154 7 | 34:02.05 | 3:58.38 | 153155 | 171042 8 | 38:00.43 | 9:46.53 | 171043 | 215045
Track 1
Filename C:\_EAC\01. Le Maudit.wav
Pre-gap length 0:00:03.40
Peak level 96.5 % Extraction speed 2.0 X Track quality 100.0 % Test CRC 55AFEE29 Copy CRC 55AFEE29 Track not present in AccurateRip database Copy OK
Track 2
Filename C:\_EAC\02. Carrousel.wav
Peak level 80.2 % Extraction speed 1.1 X Track quality 99.9 % Test CRC 48FC9EF1 Copy CRC 48FC9EF1 Track not present in AccurateRip database Copy OK
Track 3
Filename C:\_EAC\03. Terminal.wav
Peak level 96.5 % Extraction speed 2.5 X Track quality 100.0 % Test CRC B459BF29 Copy CRC B459BF29 Track not present in AccurateRip database Copy OK
Track 4
Filename C:\_EAC\04. Murmures à l'Oreilles des Monstres.wav
Peak level 96.5 % Extraction speed 2.8 X Track quality 100.0 % Test CRC F0302DC0 Copy CRC F0302DC0 Track not present in AccurateRip database Copy OK
Track 5
Filename C:\_EAC\05. Père et Fille.wav
Peak level 96.5 % Extraction speed 2.9 X Track quality 100.0 % Test CRC B9301120 Copy CRC B9301120 Track not present in AccurateRip database Copy OK
Track 6
Filename C:\_EAC\06. Bateau qui Coule.wav
Pre-gap length 0:00:01.37
Peak level 96.5 % Extraction speed 3.2 X Track quality 100.0 % Test CRC 9AAA1C18 Copy CRC 9AAA1C18 Track not present in AccurateRip database Copy OK
Track 7
Filename C:\_EAC\07. Antidote.wav
Peak level 96.5 % Extraction speed 3.2 X Track quality 100.0 % Test CRC 9DABEE39 Copy CRC 9DABEE39 Track not present in AccurateRip database Copy OK
Track 8
Filename C:\_EAC\08. Le Double.wav
Pre-gap length 0:00:02.90
Peak level 96.5 % Extraction speed 3.7 X Track quality 100.0 % Test CRC 5D1E6399 Copy CRC 5D1E6399 Track not present in AccurateRip database Copy OK
None of the tracks are present in the AccurateRip database
No errors occurred
End of status report
---- CUETools DB Plugin V2.1.4
[CTDB TOCID: nR618z03wJlZUbA5mAg1eaCsdsc-] foundSubmit result: nR618z03wJlZUbA5mAg1eaCsdsc- has been confirmedTrack | CTDB Status 1 | (2/2) Accurately ripped 2 | (2/2) Accurately ripped 3 | (2/2) Accurately ripped 4 | (2/2) Accurately ripped 5 | (2/2) Accurately ripped 6 | (2/2) Accurately ripped 7 | (2/2) Accurately ripped 8 | (2/2) Accurately ripped
==== Log checksum 4A12F941381B5E49C316F2E951E641222544C703BEA1A6E80D70C659BC0F19F2 ====

Содержание индексной карты (.CUE)

REM GENRE Avant-ProgREM DATE 2018REM DISCID 620B3208REM COMMENT "ExactAudioCopy v1.0b4"PERFORMER "Les Comptes de Korsakoff"TITLE "Nos Amers"FILE "01. Le Maudit.wav" WAVE TRACK 01 AUDIO TITLE "Le Maudit" PERFORMER "Les Comptes de Korsakoff" FLAGS DCP PREGAP 00:01:30 INDEX 01 00:00:00FILE "02. Carrousel.wav" WAVE TRACK 02 AUDIO TITLE "Carrousel" PERFORMER "Les Comptes de Korsakoff" FLAGS DCP INDEX 01 00:00:00FILE "03. Terminal.wav" WAVE TRACK 03 AUDIO TITLE "Terminal" PERFORMER "Les Comptes de Korsakoff" FLAGS DCP INDEX 01 00:00:00FILE "04. Murmures à l'Oreilles des Monstres.wav" WAVE TRACK 04 AUDIO TITLE "Murmures à l'Oreilles des Monstres" PERFORMER "Les Comptes de Korsakoff" FLAGS DCP INDEX 01 00:00:00FILE "05. Père et Fille.wav" WAVE TRACK 05 AUDIO TITLE "Père et Fille" PERFORMER "Les Comptes de Korsakoff" FLAGS DCP INDEX 01 00:00:00 TRACK 06 AUDIO TITLE "Bateau qui Coule" PERFORMER "Les Comptes de Korsakoff" FLAGS DCP INDEX 00 03:56:58FILE "06. Bateau qui Coule.wav" WAVE INDEX 01 00:00:00FILE "07. Antidote.wav" WAVE TRACK 07 AUDIO TITLE "Antidote" PERFORMER "Les Comptes de Korsakoff" FLAGS DCP INDEX 01 00:00:00 TRACK 08 AUDIO TITLE "Le Double" PERFORMER "Les Comptes de Korsakoff" FLAGS DCP INDEX 00 03:55:45FILE "08. Le Double.wav" WAVE INDEX 01 00:00:00

Лог проверки качества

-----------------------
DON'T MODIFY THIS FILE
-----------------------
PERFORMER: auCDtect Task Manager, ver. 1.6.0 RC1 build 1.6.0.1Copyright (c) 2008-2010 y-soft. All rights reservedhttp://y-soft.org
ANALYZER: auCDtect: CD records authenticity detector, version 0.8.2Copyright (c) 2004 Oleg Berngardt. All rights reserved.Copyright (c) 2004 Alexander Djourik. All rights reserved.
FILE: 01. Le Maudit.flac Size: 48005704 Hash: AFC2BE50A88EE0AF12668D949FCBB1E6 Accuracy: -m0 Conclusion: CDDA 99% Signature: C7802475BA00766D411E5135FE908E6E365E8EDEFILE: 02. Carrousel.flac Size: 8240756 Hash: AC32364692EDD684BB959A2EDF3B6413 Accuracy: -m0 Conclusion: CDDA 100% Signature: 14DB6A895AA487FD1CE319864D213A948E567A3EFILE: 03. Terminal.flac Size: 43304521 Hash: 185B56069A877E3E214BC42A974C3B3A Accuracy: -m0 Conclusion: CDDA 100% Signature: 99606FB8E0EC62844BB1B9EC27FF8F89712FACB3FILE: 04. Murmures à l'Oreilles des Monstres.flac Size: 38988185 Hash: 3E432947FA0E72388CCBF193C123CDD8 Accuracy: -m0 Conclusion: CDDA 100% Signature: B375388C16D7C565884BCA56590E0DDDA58863A9FILE: 05. Père et Fille.flac Size: 22992479 Hash: 3648F22B99031827CF159F2297885526 Accuracy: -m0 Conclusion: CDDA 100% Signature: A9DBE47F33E607236E7DBD3AFFEF7888AE9A6CCCFILE: 06. Bateau qui Coule.flac Size: 39667244 Hash: 09CC7F55AB28406171697C1217884EB7 Accuracy: -m0 Conclusion: CDDA 99% Signature: E1FA1780D1CD2FAC9CD6D1FBCE71E91F51FAA768FILE: 07. Antidote.flac Size: 19682586 Hash: DFD53C55DFC2B4526319EE8EBAB011E1 Accuracy: -m0 Conclusion: CDDA 85% Signature: 4CA3A91EC50B9871070C2039FB18A77A1E1996C3FILE: 08. Le Double.flac Size: 59517712 Hash: 3766E46CF9401DFC7C576495B216868A Accuracy: -m0 Conclusion: CDDA 100% Signature: 2D11E1441E6E63FECDAD29A8D9998993EB384214

DRM.log

foobar2000 1.3.8 / Dynamic Range Meter 1.1.1log date: 2019-08-13 15:49:21
--------------------------------------------------------------------------------Analyzed: Les Comptes de Korsakoff / Nos Amers--------------------------------------------------------------------------------
DR Peak RMS Duration Track--------------------------------------------------------------------------------DR6 -0.30 dB -8.86 dB 7:12 01-Le MauditDR12 -1.92 dB -20.95 dB 1:53 02-CarrouselDR9 -0.30 dB -12.19 dB 7:58 03-TerminalDR9 -0.30 dB -13.69 dB 6:50 04-Murmures à l'Oreilles des MonstresDR9 -0.30 dB -11.94 dB 3:58 05-Père et FilleDR6 -0.30 dB -10.53 dB 6:09 06-Bateau qui CouleDR9 -0.30 dB -12.35 dB 3:59 07-AntidoteDR6 -0.30 dB -10.87 dB 9:47 08-Le Double--------------------------------------------------------------------------------
Number of tracks: 8Official DR value: DR8
Samplerate: 44100 HzChannels: 2Bits per sample: 16Bitrate: 810 kbpsCodec: FLAC================================================================================

Об альбоме (сборнике)

Prise de son et mixage: Pascal Coquard
Mastering: Olivier Valcarcel
Rémy Porcard: artwork
Atelier l'Apothicaire: Sérigraphie
released May 24, 2019

Состав

- Geoffrey Grangé / Basse, Voix, Compositions
- Guillaume Pluton, Trompette, Arrangements
- Diego Fano / Saxophone Alto
- Grégory Julliard / Euphonium
- Marie-Claude Condamin / Violoncelle, Textes
- Romain Baret / Guitare
- Christophe Blond / Piano
- Quentin Lavy / Batterie


[geo-torrent.biz]_t_5765715.torrent
Torrent: Registered ·  [ 2019-08-14 00:03 ] ·  7db45ae973db75bf7ed77012f912e9e15a105dc8

13 KB

Status: checked
Completed: 0 times
Size: 298 MB
Rating: 
(Votes: 0)
Say thanks: 0  Thanks
Похожие темы
[Profile]    [PM]
Display posts from previous:    
Reply to topic

The time now is: Today 04:36

All times are GMT + 7 Hours



You cannot post new topics in this forum
You cannot reply to topics in this forum
You cannot edit your posts in this forum
You cannot delete your posts in this forum
You cannot vote in polls in this forum
You cannot attach files in this forum
You can download files in this forum