Шугер Крик: Возродившийся злодей / Sugar Creek Gang: Revival Villains (Джой Чэпман / Joy Chapman) [2005, США, Приключения, DVDRip] MVO (SDI Media Russia) + Original Eng

Reply to topic
DL-List and Torrent activity [Update пиров]
Size:  1.09 GB   |    Registered:  5 months 28 days   |    Completed:  0 times

Seeder not seen: Never

 
   
 
 
 
Author Message

Пушистый

Post 25-Aug-2019 14:45

[Quote]

Шугер Крик: Возродившийся злодей / Sugar Creek Gang: Revival Villains
«Will Big Bob's threat come true? Join the gang in a race against nightfall to find out!»
Страна: США
Жанр: Приключения
Год выхода: 2005
Продолжительность: 01:11:36
Перевод: Профессиональный (многоголосый закадровый) SDI Media Russia
Субтитры: нет
Оригинальная аудиодорожка: английский
Режиссер: Джой Чэпман / Joy Chapman
В ролях: Лекси Джонсон, Коди Браун, Josh Garmon, Люк Гармон, Jay St. Onge, Леви Бонилла, Jacob
Velcoff, Сэмюэл Ходж, Адам Бойер, Кайла Белль Роуз
Описание: Банда предвкушает события предстоящего вечера вместе с купанием в ручье… пока не появятся хулиганы. После водной драки Биг Боб Тилл предупреждает банду о том, что праздник может оказаться под большой угрозой
Доп. информация: Дорожка с MVO синхронизирована и наложена ale_x2008 при помощи Sony Vegas и VirtualDubMod.
Дорожка с канала FilmBox


Сэмпл: http://yadi.sk/i/OGC9YICAWOXt-A
Качество видео: DVDRip
Формат файла: AVI
Видео: XviD build 73, 704x400 (1.76:1), 23.976 fps, 1785 kbps avg, 0.26 bit/pixel
Аудио: AC3 Dolby Digital, 48000Hz, 2/0 (L,R) ch (stereo), 192 kbps avg (MVO)
Аудио 2: AC3 Dolby Digital, 48000Hz, 2/0 (L,R) ch (stereo), 192 kbps avg (Eng)

MediaInfo

3. Шугер Крик - Возродившийся злодей (Sugar Creek Gang - Revival Villains) [by ale_x2008].aviFormat : AVIFormat/Info : Audio Video InterleaveFile size : 1.09 GiBDuration : 1 h 11 minOverall bit rate : 2 184 kb/sMovie name : 3. Шугер Крик - Возродившийся злодей (Sugar Creek Gang - Revival Villains) EngDirector : DVDRip by ale_x2008Genre : Adventure/FamilyWriting application : VirtualDubMod 1.5.10.3 (build 2550/release)Original source form/Name : MovieCopyright : Edich2Comment :
VideoID : 0Format : MPEG-4 VisualFormat profile : Advanced Simple@L5Format settings : BVOP1Format settings, BVOP : 1Format settings, QPel : NoFormat settings, GMC : No warppointsFormat settings, Matrix : Default (MPEG)Codec ID : XVIDCodec ID/Hint : XviDDuration : 1 h 11 minBit rate : 1 786 kb/sWidth : 704 pixelsHeight : 400 pixelsDisplay aspect ratio : 16:9Frame rate : 23.976 (24000/1001) FPSColor space : YUVChroma subsampling : 4:2:0Bit depth : 8 bitsScan type : ProgressiveCompression mode : LossyBits/(Pixel*Frame) : 0.265Stream size : 915 MiB (82%)Writing library : XviD 73
Audio #1ID : 1Format : AC-3Format/Info : Audio Coding 3Codec ID : 2000Duration : 1 h 11 minBit rate mode : ConstantBit rate : 192 kb/sChannel(s) : 2 channelsChannel positions : Front: L RSampling rate : 48.0 kHzFrame rate : 31.250 FPS (1536 SPF)Bit depth : 16 bitsCompression mode : LossyStream size : 98.3 MiB (9%)Alignment : Split accross interleavesInterleave, duration : 42 ms (1.00 video frame)Interleave, preload duratio : 500 msService kind : Complete Main
Audio #2ID : 2Format : AC-3Format/Info : Audio Coding 3Codec ID : 2000Duration : 1 h 11 minBit rate mode : ConstantBit rate : 192 kb/sChannel(s) : 2 channelsChannel positions : Front: L RSampling rate : 48.0 kHzFrame rate : 31.250 FPS (1536 SPF)Bit depth : 16 bitsCompression mode : LossyStream size : 98.3 MiB (9%)Alignment : Split accross interleavesInterleave, duration : 42 ms (1.00 video frame)Interleave, preload duratio : 500 msService kind : Complete Main

Скриншоты




[geo-torrent.biz]_t_5769912.torrent
Torrent: Registered ·  [ 2019-08-25 14:45 ] ·  2776a2531e35f56c4eae0fd476ede1b9a9f88389

11 KB

Status: checked
Completed: 0 times
Size: 1.09 GB
Rating: 
(Votes: 0)
Say thanks: 0  Thanks
Похожие темы
[Profile]    [PM]
Display posts from previous:    
Reply to topic

The time now is: Today 12:11

All times are GMT + 7 Hours



You cannot post new topics in this forum
You cannot reply to topics in this forum
You cannot edit your posts in this forum
You cannot delete your posts in this forum
You cannot vote in polls in this forum
You cannot attach files in this forum
You can download files in this forum