(Free Improvisation, Experimental Rock) [WEB] Rutger Hauser - The Swim - 2019, FLAC (tracks), lossless

Reply to topic
DL-List and Torrent activity [Update пиров]
Size:  220 MB   |    Registered:  5 months 10 days   |    Completed:  0 times

Seeder not seen: Never

 
   
 
 
 
Author Message

Пушистый

Post 07-Sep-2019 21:23

[Quote]

Rutger Hauser"The Swim"2019
Страна группы [currently] • United Kingdom (London, Greater London)

.

Жанры • Free Improvisation | Experimental Rock
Издатель • Tutl Records (Faroe Islands)
Номер по каталогу • HJF518
Аудиокодек • FLAC (*.flac)
Тип рипа • tracks
Источник • redacted.ch [bandcamp.com]
Носитель • WEB
.
Track Listing [00:41:15]
01. Maximum Tourist | Fjallavath .(06:24)
02. Hestur and Koltur | Hestur og Koltur .(05:10)
03. Five Pages in the Lost Ledger | Leiti .(04:16)
04. The Swim | Av Brúnni við Streymin .(04:40)
05. On the Rotifer Conchilus Volvox | Golmansskor .(05:34)
06. Bohnanza Life | Bursatangi .(04:01)
07. Catfish Michael | Millum Víkingartoft og Gravarbakka .(04:31)
08. Faroes 01 _ Nólsoy, Looking North | Rúnarsteinur í Sandavágskirkju .(06:42)

.
released July 1, 2019

+ / -к а ч е с т в о

-----------------------
DON'T MODIFY THIS FILE
-----------------------
PERFORMER: auCDtect Task Manager, ver. 1.6.0 RC1 build 1.6.0.1Copyright (c) 2008-2010 y-soft. All rights reserved
ANALYZER: auCDtect: CD records authenticity detector, version 0.8.2Copyright (c) 2004 Oleg Berngardt. All rights reserved.Copyright (c) 2004 Alexander Djourik. All rights reserved.
FILE: 08. Faroes 01 _ Nólsoy, Looking North (Rúnarsteinur í Sandavágskirkju).flac Size: 33116614 Hash: AA41C942F744BBCC13362DC04EA479BC Accuracy: -m0 Conclusion: CDDA 100% Signature: ECBE71776AA739F408A6AD3E4307380F596B4222FILE: 07. Catfish Michael (Millum Víkingartoft og Gravarbakka).flac Size: 23041150 Hash: 494DB669F6DBE627EA9BCB9B53B1688E Accuracy: -m0 Conclusion: CDDA 100% Signature: A81793EF0A603BAD4294882A1B4EC5380EE367C4FILE: 06. Bohnanza Life (Bursatangi).flac Size: 24483957 Hash: DCFDED6AB1CA878C61C90EBDCD3EA903 Accuracy: -m0 Conclusion: CDDA 100% Signature: AB5565AC51D39BB890C46217434466ED9CB98EB8FILE: 05. On the Rotifer Conchilus Volvox (Golmansskor).flac Size: 39460710 Hash: 6E558C721F76396829DEF67F21B2B0C8 Accuracy: -m0 Conclusion: CDDA 100% Signature: 3C649F001B2099236E0556CBB818C8901B2F4A51FILE: 04. The Swim (Av Brúnni við Streymin).flac Size: 29526663 Hash: 59A09CA2880F0B96DB9521C2D9187BD2 Accuracy: -m0 Conclusion: CDDA 100% Signature: AAF65065AFAC75B5A6C8D7C294EFEED4EFCFD862FILE: 03. Five Pages in the Lost Ledger (Leiti).flac Size: 22716091 Hash: B59D54A18EAB58FB0F216C61F286CF04 Accuracy: -m0 Conclusion: CDDA 92% Signature: 066F1B80CF295697FC2D871A311C6739BD86625CFILE: 02. Hestur and Koltur (Hestur og Koltur).flac Size: 24745900 Hash: 947938669423D51252B01AE681294927 Accuracy: -m0 Conclusion: CDDA 86% Signature: 7FFA92FA7CB20484E94444227CADF96D42817D69FILE: 01. Maximum Tourist (Fjallavatn).flac Size: 31553822 Hash: 71271CCE03486029BB5F3130EF8C514B Accuracy: -m0 Conclusion: CDDA 100% Signature: F433621E2A0C0285A714402560D8841107EC9248

д д

foobar2000 1.3.9 / Dynamic Range Meter 1.1.1log date: 2019-09-06 14:24:34
--------------------------------------------------------------------------------Analyzed: Rutger Hauser / The Swim--------------------------------------------------------------------------------
DR Peak RMS Duration Track--------------------------------------------------------------------------------DR8 -0.20 dB -11.96 dB 6:23 01-Maximum Tourist | FjallavathDR5 -0.18 dB -8.88 dB 5:10 02-Hestur and Koltur | Hestur og KolturDR9 -0.20 dB -11.14 dB 4:16 03-Five Pages in the Lost Ledger | LeitiDR6 -0.41 dB -7.44 dB 4:39 04-The Swim | Av Brúnni við StreyminDR7 -0.21 dB -8.63 dB 5:34 05-On the Rotifer Conchilus Volvox | GolmansskorDR6 -0.20 dB -9.49 dB 4:01 06-Bohnanza Life | BursatangiDR6 0.00 dB -8.54 dB 4:30 07-Catfish Michael | Millum Víkingartoft og GravarbakkaDR4 -0.20 dB -7.65 dB 6:42 08-Faroes 01 _ Nólsoy, Looking North | Rúnarsteinur í Sandavágskirkju--------------------------------------------------------------------------------
Number of tracks: 8Official DR value: DR6
Samplerate: 44100 HzChannels: 2Bits per sample: 16Bitrate: 657 kbpsCodec: FLAC================================================================================

с п е к т р ы



[geo-torrent.biz]_t_5774819.torrent
Torrent: Registered ·  [ 2019-09-07 21:23 ] ·  b022bdb3754894b4e73accf8cb0f9abbf4efd800

18 KB

Status: checked
Completed: 0 times
Size: 220 MB
Rating: 
(Votes: 0)
Say thanks: 0  Thanks
Похожие темы
[Profile]    [PM]
Display posts from previous:    
Reply to topic

The time now is: Today 01:20

All times are GMT + 7 Hours



You cannot post new topics in this forum
You cannot reply to topics in this forum
You cannot edit your posts in this forum
You cannot delete your posts in this forum
You cannot vote in polls in this forum
You cannot attach files in this forum
You can download files in this forum