Тетя Маруся (Марк Брауде) [1985, киноповесть, DVB]

Reply to topic
DL-List and Torrent activity [Update пиров]
Size:  4.81 GB   |    Registered:  5 months 7 days   |    Completed:  0 times

Seeder not seen: Never

 
   
 
 
 
Author Message

КЭП

Post 11-Sep-2019 01:13

[Quote]

Тетя Маруся (2 серии)
Жанр: киноповесть
Год выхода: 1985
Продолжительность: 01:03:14 + 01:04:44
Режиссёр: Марк Брауде
В ролях: Клара Лучко, Владимир Конкин, Ирина Шевчук, А. Добролюбов, Сережа Семянов, Анатолий Ромашин, Владимир Козел, Светлана Кузьмина, Римма Маркова, Юрий Катин-Ярцев, Валентина Титова, Алексей Кожевников, Людмила Ксенофонтова, Андрей Толубеев, Владимир Сичкарь
Описание: По мотивам одноименной повести Галины Поповой.
Простая русская женщина, потеряв мужа и сына, оказалась в чужой семье и воспитала чужого ребенка.
Доп. информация: запись потока *.ts со спутника Экспресс АМ6, 53° в.д., ремукс в *.mkv программой VideoReDo.
Качество видео: DVB
Формат файла: MKV
Видео: MPEG2 Video, 720(1024)x576 (16:9), 25,000 кадров/сек, 5012 Кбит/сек
Аудио: MPEG Audio, 48,0 КГц, 256 Кбит/сек, 2 канала

MediaInfo

Общее
Уникальный идентификатор : 107918165518561747078779369178369305038 (0x5130485BDA2AEF7A682E74C38FEF29CE)
Полное имя : D:\Torrent\ТЕТЯ МАРУСЯ\ТЕТЯ МАРУСЯ 01 16Х9 (Kultura 53).mkv
Формат файла : Matroska
Версия формата : Version 2
Размер файла : 2,37 Гбайт
Продолжительность : 1 ч. 3 м.
Режим общего битрейта : Переменный
Общий поток : 5375 Кбит/сек
Программа кодирования : Lavf52.64.2
Библиотека кодирования : Lavf52.64.2
Видео
Идентификатор : 1
Формат файла : MPEG Video
Версия формата : Version 2
Профиль формата : Main@Main
Параметр BVOP формата : Да
Параметр матрицы формата : Выборочная
Параметр GOP формата : M=3, N=15
Структура изображения : Frame
Идентификатор кодека : V_MPEG2
Идентификатор кодека/Информация : MPEG 1 or 2 Video
Продолжительность : 1 ч. 3 м.
Вид битрейта : Переменный
Битрейт : 5012 Кбит/сек
Максимальный битрейт : 15,0 Мбит/сек
Ширина : 720 пикселей
Высота : 576 пикселей
Соотношение сторон : 16:9
Соотношение сторон в оригинале : 16:9
Режим частоты кадров : Постоянный
Частота кадров : 25,000 кадров/сек
Стандарт вещания : PAL
Цветовое пространство : YUV
Субдискретизация насыщенности : 4:2:0
Битовая глубина : 8 бит
Тип развёртки : Чересстрочная
Порядок развёртки : Верхнее поле первое
Метод сжатия : С потерями
Бит/(Пиксели*Кадры) : 0.483
Размер потока : 2,21 Гбайт (93%)
Default : Да
Forced : Нет
Аудио
Идентификатор : 2
Формат файла : MPEG Audio
Версия формата : Version 1
Профиль формата : Layer 2
Идентификатор кодека : A_MPEG/L2
Идентификатор кодека/Подсказка : MP2
Продолжительность : 1 ч. 3 м.
Вид битрейта : Постоянный
Битрейт : 256 Кбит/сек
Каналы : 2 канала
Частота : 48,0 КГц
Метод сжатия : С потерями
Задержка видео : 21 мс.
Размер потока : 116 Мбайт (5%)
Язык : English
Default : Да
Forced : Нет
Общее
Уникальный идентификатор : 255569428405515342390391835950762622995 (0xC044E1AA387D54F454AA40F3F6870013)
Полное имя : D:\Torrent\ТЕТЯ МАРУСЯ\ТЕТЯ МАРУСЯ 02 16Х9 (Kultura 53).mkv
Формат файла : Matroska
Версия формата : Version 2
Размер файла : 2,43 Гбайт
Продолжительность : 1 ч. 4 м.
Режим общего битрейта : Переменный
Общий поток : 5375 Кбит/сек
Программа кодирования : Lavf52.64.2
Библиотека кодирования : Lavf52.64.2
Видео
Идентификатор : 1
Формат файла : MPEG Video
Версия формата : Version 2
Профиль формата : Main@Main
Параметр BVOP формата : Да
Параметр матрицы формата : Выборочная
Параметр GOP формата : M=3, N=15
Структура изображения : Frame
Идентификатор кодека : V_MPEG2
Идентификатор кодека/Информация : MPEG 1 or 2 Video
Продолжительность : 1 ч. 4 м.
Вид битрейта : Переменный
Битрейт : 5012 Кбит/сек
Максимальный битрейт : 15,0 Мбит/сек
Ширина : 720 пикселей
Высота : 576 пикселей
Соотношение сторон : 16:9
Соотношение сторон в оригинале : 16:9
Режим частоты кадров : Постоянный
Частота кадров : 25,000 кадров/сек
Стандарт вещания : PAL
Цветовое пространство : YUV
Субдискретизация насыщенности : 4:2:0
Битовая глубина : 8 бит
Тип развёртки : Чересстрочная
Порядок развёртки : Верхнее поле первое
Метод сжатия : С потерями
Бит/(Пиксели*Кадры) : 0.483
Размер потока : 2,27 Гбайт (93%)
Default : Да
Forced : Нет
Аудио
Идентификатор : 2
Формат файла : MPEG Audio
Версия формата : Version 1
Профиль формата : Layer 2
Идентификатор кодека : A_MPEG/L2
Идентификатор кодека/Подсказка : MP2
Продолжительность : 1 ч. 4 м.
Вид битрейта : Постоянный
Битрейт : 256 Кбит/сек
Каналы : 2 канала
Частота : 48,0 КГц
Метод сжатия : С потерями
Задержка видео : 5 мс.
Размер потока : 119 Мбайт (5%)
Язык : English
Default : Да
Forced : Нет


[geo-torrent.biz]_t_5775666.torrent
Torrent: Registered ·  [ 2019-09-11 01:13 ] ·  31cedd6116543ca665322e6692273d68e7aa3f14

25 KB

Status: checked
Completed: 0 times
Size: 4.81 GB
Rating: 
(Votes: 0)
Say thanks: 0  Thanks
Похожие темы
[Profile]    [PM]
Display posts from previous:    
Reply to topic

The time now is: Today 02:01

All times are GMT + 7 Hours



You cannot post new topics in this forum
You cannot reply to topics in this forum
You cannot edit your posts in this forum
You cannot delete your posts in this forum
You cannot vote in polls in this forum
You cannot attach files in this forum
You can download files in this forum