Молчание ягнят / The Silence of the Lambs (Джонатан Демме / Jonathan Demme) [1991, США, триллер, DVDRip-AVC] [Fullscreen] DVO (НТВ+) + Sub Rus, Eng

Reply to topic
DL-List and Torrent activity [Update пиров]
Size:  1.47 GB   |    Registered:  5 months 6 days   |    Completed:  0 times

Seeder not seen: Never

 
   
 
 
 
Author Message

Кейт

Post 11-Sep-2019 09:31

[Quote]

Молчание ягнят
The Silence of the Lambs
Fullscreen Страна: США
Жанр: триллер
Год выхода: 1991
Продолжительность: 01:58:32-Перевод: Профессиональный (двухголосый закадровый) НТВ+
Текст читали: Ольга Плетнёва и Игорь Тарадайкин
Субтитры: русские (надписи, полные R5), английские
Оригинальная аудиодорожка: нет-Режиссер: Джонатан Демме / Jonathan Demme
В ролях: Джоди Фостер, Энтони Хопкинс, Скотт Гленн, Тед Левайн, Чарльз Нэпьер, Трейси Уолтер, Фрэнки Фэйзон, Стюарт Рудин, Дэниэл фон Барген, Джордж А. Ромеро, Энтони Хилд, Кейси Леммонс, Брук Смит, Роджер Корман, Дэн Батлер, Пол Лазар, Рон Вотер-Описание: В провинциальном американском городке совершено несколько жестоких убийств. Следствие приходит к выводу, что все преступления совершил серийный маньяк, однако ни улик, ни зацепок у полиции нет. Руководство ФБР решает обратиться за помощью к бывшему психиатру Ганнибалу Лектеру, отбывающему пожизненный срок за похожие жестокие преступления. Эта миссия поручается молодой выпускнице школы ФБР Клариссе Старлинг. Кларисса оказывается втянутой в мучительные психологические игры с Лектером, цена которых - очередная подсказка, помогающая приблизиться на шаг ближе к серийному убийце...-Доп. информация: Fullscreen
Озвучка на трекере появляется впервые
Сэмпл: 1минута53сек-Качество видео: DVDRip-AVC
Формат файла: MKV
Видео: AVC, 716х480@716х537, 4:3, 23,976 кадра/сек, 1580 Кбит/сек
Аудио: AC-3, 48,0 КГц, 192 Кбит/сек, 2 канала (двухголосый НТВ+)
Формат файла субтитров: softsub (SRT)

Источник: none с BD

MediaInfox264.log

x264.exe: --crf 19.5 --preset veryslow --profile high --level 4.1 --aq-mode 3 --deblock -3:-2 --merange 42 --no-chroma-me --bframes 16 --no-fast-pskip --no-dct-decimate --psy-rd 1.00:0.30 --threads 4 --subme 11 --min-keyint 24 --keyint 240 --sar 884:989
avs [info]: 716x480p 884:989 @ 24000/1001 fps (cfr)
x264 [info]: using SAR=884/989
x264 [info]: using cpu capabilities: MMX2 SSE2Fast SSSE3 SSE4.1 Cache64
x264 [info]: profile High, level 4.1, 4:2:0, 8-bit
x264 [info]: frame I:1078 Avg QP:15.66 size: 59725
x264 [info]: frame P:33014 Avg QP:19.27 size: 21993
x264 [info]: frame B:136433 Avg QP:21.91 size: 4503
x264 [info]: consecutive B-frames: 1.2% 1.2% 6.2% 9.2% 7.5% 72.3% 1.8% 0.2% 0.2% 0.1% 0.0% 0.0% 0.0% 0.0% 0.0% 0.0% 0.1%
x264 [info]: mb I I16..4: 10.9% 78.9% 10.2%
x264 [info]: mb P I16..4: 0.8% 18.4% 1.4% P16..4: 28.5% 32.5% 13.1% 3.3% 0.5% skip: 1.4%
x264 [info]: mb B I16..4: 0.1% 1.5% 0.1% B16..8: 38.0% 14.9% 1.6% direct: 5.1% skip:38.8% L0:42.7% L1:36.4% BI:20.9%
x264 [info]: 8x8 transform intra:88.5% inter:56.4%
x264 [info]: direct mvs spatial:100.0% temporal:0.0%
x264 [info]: coded y,uvDC,uvAC intra: 94.5% 87.5% 61.6% inter: 21.2% 24.4% 9.6%
x264 [info]: i16 v,h,dc,p: 14% 10% 14% 62%
x264 [info]: i8 v,h,dc,ddl,ddr,vr,hd,vl,hu: 12% 11% 12% 8% 10% 11% 10% 12% 14%
x264 [info]: i4 v,h,dc,ddl,ddr,vr,hd,vl,hu: 13% 11% 5% 8% 13% 14% 12% 11% 12%
x264 [info]: i8c dc,h,v,p: 42% 24% 18% 15%
x264 [info]: Weighted P-Frames: Y:5.5% UV:3.1%
x264 [info]: ref P L0: 42.0% 9.6% 19.0% 5.5% 5.6% 3.5% 3.7% 1.7% 1.9% 1.3% 1.5% 1.1% 1.2% 0.9% 1.0% 0.6%
x264 [info]: ref B L0: 84.2% 8.0% 2.6% 1.2% 0.8% 0.7% 0.6% 0.4% 0.3% 0.3% 0.2% 0.2% 0.2% 0.1% 0.1%
x264 [info]: ref B L1: 96.0% 4.0%
x264 [info]: kb/s:1580.11
encoded 170525 frames, 6.12 fps, 1580.11 kb/s
Общее
Уникальный идентификатор : 254212641956995699417853894899178450051 (0xBF3F92EDA52734E5B7E50B8AE8D0AC83)
Полное имя : Молчание ягнят.1991.DVDRip.mkv
Формат файла : Matroska
Версия формата : Version 4
Размер файла : 1,47 Гбайт
Продолжительность : 1 ч. 58 м.
Общий поток : 1774 Кбит/сек
Название фильма : Молчание ягнят / The silence of the lambs / 1991 / DVD / Fullscreen
Дата кодирования : UTC 2019-09-10 13:47:03
Программа кодирования : mkvmerge v37.0.0 ('Leave It') 32-bit
Библиотека кодирования : libebml v1.3.9 + libmatroska v1.5.2
Видео
Идентификатор : 1
Формат файла : AVC
Формат файла/Информация : Advanced Video Codec
Профиль формата : High@L4.1
Настройки формата : CABAC / 16 Ref Frames
Параметр CABAC формата : Да
Параметр RefFrames формата : 16 кадров
Идентификатор кодека : V_MPEG4/ISO/AVC
Продолжительность : 1 ч. 58 м.
Битрейт : 1580 Кбит/сек
Ширина : 716 пикселей
Высота : 480 пикселей
Соотношение сторон : 4:3
Режим частоты кадров : Постоянный
Частота кадров : 23,976 (24000/1001) кадра/сек
Цветовое пространство : YUV
Субдискретизация насыщенности : 4:2:0
Битовая глубина : 8 бит
Тип развёртки : Прогрессивная
Бит/(Пиксели*Кадры) : 0.192
Размер потока : 1,31 Гбайт (89%)
Заголовок : Молчание ягнят / The silence of the lambs / 1991 / DVD / Fullscreen
Библиотека кодирования : x264 core 158 r2984 3759fcb
Настройки программы : cabac=1 / ref=16 / deblock=1:-3:-2 / analyse=0x3:0x133 / me=umh / subme=11 / psy=1 / psy_rd=1.00:0.30 / mixed_ref=1 / me_range=42 / chroma_me=0 / trellis=2 / 8x8dct=1 / cqm=0 / deadzone=21,11 / fast_pskip=0 / chroma_qp_offset=-4 / threads=4 / lookahead_threads=1 / sliced_threads=0 / nr=0 / decimate=0 / interlaced=0 / bluray_compat=0 / constrained_intra=0 / bframes=16 / b_pyramid=2 / b_adapt=2 / b_bias=0 / direct=3 / weightb=1 / open_gop=0 / weightp=2 / keyint=240 / keyint_min=24 / scenecut=40 / intra_refresh=0 / rc_lookahead=60 / rc=crf / mbtree=1 / crf=19.5 / qcomp=0.60 / qpmin=0 / qpmax=69 / qpstep=4 / ip_ratio=1.40 / aq=3:1.00
Язык : English
Default : Да
Forced : Нет
Аудио
Идентификатор : 2
Формат файла : AC-3
Формат файла/Информация : Audio Coding 3
Коммерческое название : Dolby Digital
Идентификатор кодека : A_AC3
Продолжительность : 1 ч. 58 м.
Вид битрейта : Постоянный
Битрейт : 192 Кбит/сек
Каналы : 2 канала
ChannelLayout : L R
Частота : 48,0 КГц
Частота кадров : 31,250 кадров/сек (1536 SPF)
Битовая глубина : 16 бит
Метод сжатия : С потерями
Размер потока : 163 Мбайт (11%)
Заголовок : двухголосый НТВ+
Язык : Russian
ServiceKind/String : Complete Main
Default : Да
Forced : Нет
Текст #1
Идентификатор : 3
Формат файла : UTF-8
Идентификатор кодека : S_TEXT/UTF8
Идентификатор кодека/Информация : UTF-8 Plain Text
Продолжительность : 1 ч. 49 м.
Битрейт : 0 бит/сек
ElementCount : 6
Размер потока : 365 байт (0%)
Заголовок : Forced
Язык : Russian
Default : Да
Forced : Нет
Текст #2
Идентификатор : 4
Формат файла : UTF-8
Идентификатор кодека : S_TEXT/UTF8
Идентификатор кодека/Информация : UTF-8 Plain Text
Продолжительность : 1 ч. 52 м.
Битрейт : 81 бит/сек
ElementCount : 1114
Размер потока : 67,3 Кбайт (0%)
Заголовок : R5
Язык : Russian
Default : Нет
Forced : Нет
Текст #3
Идентификатор : 5
Формат файла : UTF-8
Идентификатор кодека : S_TEXT/UTF8
Идентификатор кодека/Информация : UTF-8 Plain Text
Продолжительность : 1 ч. 50 м.
Битрейт : 53 бит/сек
ElementCount : 1264
Размер потока : 43,5 Кбайт (0%)
Заголовок : оригинал
Язык : English
Default : Нет
Forced : Нет
Меню
00:00:00.000 : en:Chapter 01
00:05:16.316 : en:Chapter 02
00:08:14.494 : en:Chapter 03
00:11:48.574 : en:Chapter 04
00:21:39.331 : en:Chapter 05
00:26:58.817 : en:Chapter 06
00:31:38.563 : en:Chapter 07
00:34:59.931 : en:Chapter 08
00:38:39.317 : en:Chapter 09
00:41:14.472 : en:Chapter 10
00:46:40.964 : en:Chapter 11
00:49:43.981 : en:Chapter 12
00:51:35.759 : en:Chapter 13
00:57:45.328 : en:Chapter 14
00:59:30.266 : en:Chapter 15
01:01:09.866 : en:Chapter 16
01:05:57.153 : en:Chapter 17
01:14:14.183 : en:Chapter 18
01:18:24.232 : en:Chapter 19
01:21:11.600 : en:Chapter 20
01:25:08.470 : en:Chapter 21
01:27:16.097 : en:Chapter 22
01:33:16.657 : en:Chapter 23
01:36:41.028 : en:Chapter 24
01:37:34.715 : en:Chapter 25
01:39:57.191 : en:Chapter 26
01:43:17.558 : en:Chapter 27
01:51:02.355 : en:Chapter 28

Скриншоты





[geo-torrent.biz]_t_5776329.torrent
Torrent: Registered ·  [ 2019-09-11 09:31 ] ·  8bba6028a06f6be82df87d3765a79a57dd475082

15 KB

Status: checked
Completed: 0 times
Size: 1.47 GB
Rating: 
(Votes: 0)
Say thanks: 0  Thanks
Похожие темы
[Profile]    [PM]
Display posts from previous:    
Reply to topic

The time now is: Today 01:58

All times are GMT + 7 Hours



You cannot post new topics in this forum
You cannot reply to topics in this forum
You cannot edit your posts in this forum
You cannot delete your posts in this forum
You cannot vote in polls in this forum
You cannot attach files in this forum
You can download files in this forum