Рим в огне / L\'incendio di Roma / Fire Over Rome (Гуидо Малатеста / Guido Malatesta) [1965, Югославия, Италия, Историческая драма, DVDRip] AVO (Владимир Сонькин) + Original Eng

Reply to topic
DL-List and Torrent activity [Update пиров]
Size:  1.37 GB   |    Registered:  5 months 12 days   |    Completed:  1 time

Seeder not seen: 2 months 27 days

 
   
 
 
 
Author Message

Генри

Post 11-Sep-2019 09:31

[Quote]

Рим в огне / L'incendio di Roma / Fire Over Rome
Страна: Югославия, Италия
Жанр: Историческая драма
Год выхода: 1965
Продолжительность: 01:18:54
Перевод: Авторский (одноголосый закадровый) Владимир Сонькин
Субтитры: нет
Оригинальная аудиодорожка: английский
Режиссер: Гуидо Малатеста / Guido Malatesta
В ролях: Лэнг Джеффрис, Кристина Гайони, Мойра Орфей, Марио Феличиани, Лучано Марин, Эви
Мальтальяти, Франко Фантазия, Массимо Кароччи, Владимир Медар, Владимир Бачич
Описание: Когда в Риме появляются первые христиане, проповедующие ненасилие и равноправие,
император Нерон решает, что они угрожают Великой Римской империи, славящейся своими
боевыми победами.
Доп. информация: Дорожка с С. Кузнецовым синхронизирована и наложена ale_x2008 при помощи Sony Vegas и VirtualDubMod.
За оцифрованную с VHS дорожку благодарим - d_rocker
P . S . 00:23:30 – 00:24:00 – вставка с переводом MVO


Сэмпл: http://yadi.sk/i/a_RSNoupNqeGhQ
Качество видео: DVDRip
Формат файла: AVI
Видео: XviD build 73, 720x288 (2.50:1), 25 fps, 2086 kbps avg, 0.4 bit/pixel
Аудио: AC3 Dolby Digital, 48000Hz, 2/0 (L,R) ch (mono), 192 kbps avg
Аудио 2: AC3 Dolby Digital, 48000Hz, 2/0 (L,R) ch (mono), 192 kbps avg

MediaInfo

Рим в огне (L'incendio di Roma) [by ale_x2008].aviFormat : AVIFormat/Info : Audio Video InterleaveFile size : 1.37 GiBDuration : 1 h 18 minOverall bit rate : 2 486 kb/sMovie name : Рим в огне (L'incendio di Roma)Director : DVDRip by ale_x2008Genre : Drama/HistoryWriting application : VirtualDubMod 1.5.10.3 (build 2550/release)Original source form/Name : MovieCopyright : Edich2Comment :
VideoID : 0Format : MPEG-4 VisualFormat profile : Advanced Simple@L5Format settings : BVOP1Format settings, BVOP : 1Format settings, QPel : NoFormat settings, GMC : No warppointsFormat settings, Matrix : Default (MPEG)Codec ID : XVIDCodec ID/Hint : XviDDuration : 1 h 18 minBit rate : 2 088 kb/sWidth : 720 pixelsHeight : 288 pixelsDisplay aspect ratio : 2.500Frame rate : 25.000 FPSColor space : YUVChroma subsampling : 4:2:0Bit depth : 8 bitsScan type : ProgressiveCompression mode : LossyBits/(Pixel*Frame) : 0.403Stream size : 1.15 GiB (84%)Writing library : XviD 73
Audio #1ID : 1Format : AC-3Format/Info : Audio Coding 3Codec ID : 2000Duration : 1 h 18 minBit rate mode : ConstantBit rate : 192 kb/sChannel(s) : 2 channelsChannel positions : Front: L RSampling rate : 48.0 kHzFrame rate : 31.250 FPS (1536 SPF)Bit depth : 16 bitsCompression mode : LossyStream size : 108 MiB (8%)Alignment : Split accross interleavesInterleave, duration : 40 ms (1.00 video frame)Interleave, preload duratio : 500 msService kind : Complete Main
Audio #2ID : 2Format : AC-3Format/Info : Audio Coding 3Codec ID : 2000Duration : 1 h 18 minBit rate mode : ConstantBit rate : 192 kb/sChannel(s) : 2 channelsChannel positions : Front: L RSampling rate : 48.0 kHzFrame rate : 31.250 FPS (1536 SPF)Bit depth : 16 bitsCompression mode : LossyStream size : 108 MiB (8%)Alignment : Split accross interleavesInterleave, duration : 40 ms (1.00 video frame)Interleave, preload duratio : 500 msService kind : Complete Main

Скриншоты




[geo-torrent.biz]_t_5776376.torrent
Torrent: Registered ·  [ 2019-09-11 09:31 ] ·  08716540a703734e6a5759f4d5f0367306aadaa1

14 KB

Status: checked
Completed: 1 times
Size: 1.37 GB
Rating: 
(Votes: 0)
Say thanks: 0  Thanks
Похожие темы
[Profile]    [PM]
Display posts from previous:    
Reply to topic

The time now is: Today 11:34

All times are GMT + 7 Hours



You cannot post new topics in this forum
You cannot reply to topics in this forum
You cannot edit your posts in this forum
You cannot delete your posts in this forum
You cannot vote in polls in this forum
You cannot attach files in this forum
You can download files in this forum