Нападение на 13-й участок / Assault on Precinct 13 (Жан-Франсуа Рише / Jean-Francois Richet) [2005, США, Франция, боевик, триллер, драма, криминал, WEB-DLRip] [Open Matte] Dub + 2x MVO + DVO + AVO (Гаврилов) + Sub (Rus, Eng) + Original Eng

Reply to topic
DL-List and Torrent activity [Update пиров]
Size:  2.94 GB   |    Registered:  5 months 6 days   |    Completed:  0 times

Seeder not seen: Never

 
   
 
 
 
Author Message

Пушистый

Post 11-Sep-2019 10:33

[Quote]

Нападение на 13-й участок / Assault on Precinct 13
Страна: США, Франция
Жанр: боевик, триллер, драма, криминал
Год выхода: 2005
Продолжительность: 01:49:00-Перевод: Профессиональный (дублированный)
Перевод: Профессиональный (многоголосый закадровый) | Tycoon
Перевод: Профессиональный (многоголосый закадровый) | Superbit
Перевод: Профессиональный (многоголосый закадровый) | Первый канал
Перевод: Авторский (одноголосый закадровый) | Андрей Гаврилов
Субтитры: русские, английский
Оригинальная аудиодорожка: английский-Режиссер: Жан-Франсуа Рише / Jean-Francois Richet-В ролях: Итан Хоук, Лоренс Фишбёрн, Гэбриел Бирн, Мария Белло, Дреа де Маттео, Джон Легуизамо, Брайан Деннехи, Джа Рул, Карри Грэм, Аиша Хайндс, Владимир Вихров, Олег Куценко, Андрей Градов, Елена Ивасишина, Ольга Плетнёва-Описание: 13-й полицейский участок готовится к встрече Нового года. Но снежная буря меняет их планы и разворачивает к ним спецавтобус с преступниками. Полицейские запирают их и возвращаются к празднованию. Однако вскоре вооружённые люди в максах нападают на участок. Полицейские вынуждены объединиться с преступниками, чтобы выжить этой ночью.- -Качество видео: WEB-DLRip
Формат файла: AVI
Видео: 688x384 (1.79:1), 23.976 fps, XviD build 73 ~1645 kbps avg, 0.26 bit/pixel
Аудио 1: 48 kHz, AC3 Dolby Digital, 3/2 (L,C,R,l,r) + LFE ch, ~448 kbps | dub
Аудио 2: 48 kHz, AC3 Dolby Digital, 3/2 (L,C,R,l,r) + LFE ch, ~384 kbps | Tycoon
Аудио 3: 48 kHz, AC3 Dolby Digital, 3/2 (L,C,R,l,r) + LFE ch, ~384 kbps | eng-Аудио 4: 48 kHz, AC3, 2/0 (L,R) ch, ~224.00 kbps avg | Первый канал
Аудио 5: 48 kHz, AC3 Dolby Digital, 3/2 (L,C,R,l,r) + LFE ch, ~384 kbps | Superbit
Аудио 6: 48 kHz, AC3 Dolby Digital, 3/2 (L,C,R,l,r) + LFE ch, ~384 kbps | Андрей Гаврилов-Сэмпл-

BD vs Open Matte



MediaInfo

Формат файла                                   : AVI
Формат файла/Информация                        : Audio Video Interleave
Профиль формата                          : OpenDML
Размер файла                             : 2,18 Гбайт
Продолжительность                        : 1 ч. 48 м.
Общий поток                              : 2868 Кбит/сек
Название фильма                          : Нападение на 13 участок_2005_WEB-DLRip
Программа кодирования                    : VirtualDubMod 1.5.10.3 | www.virtualdub-fr.org || (build 2550/release)
Авторское право                          : порошков
Видео
Идентификатор                            : 0
Формат файла                                   : MPEG-4 Visual
Профиль формата                          : Advanced Simple@L5
Настройки формата                        : BVOP1 / Custom Matrix
Параметр BVOP формата                    : 1
Параметр QPel формата                    : Нет
Параметр GMC формата                     : Без точки перехода
Параметр матрицы формата                 : Выборочная
Идентификатор кодека                     : XVID
Идентификатор кодека/Подсказка           : XviD
Продолжительность                        : 1 ч. 48 м.
Битрейт                                  : 1629 Кбит/сек
Ширина                                   : 688 пикселей
Высота                                   : 384 пикселя
Соотношение сторон                       : 16:9
Частота кадров                           : 23,976 (24000/1001) кадра/сек
Цветовое пространство                    : YUV
Субдискретизация насыщенности            : 4:2:0
Битовая глубина                          : 8 бит
Тип развёртки                            : Прогрессивная
Метод сжатия                             : С потерями
Бит/(Пиксели*Кадры)                      : 0.257
Размер потока                            : 1,24 Гбайт (57%)
Библиотека кодирования                   : XviD 73
Аудио #1
Идентификатор                            : 1
Формат файла                                   : AC-3
Формат файла/Информация                        : Audio Coding 3
Коммерческое название                    : Dolby Digital
Идентификатор кодека                     : 2000
Продолжительность                        : 1 ч. 48 м.
Вид битрейта                             : Постоянный
Битрейт                                  : 448 Кбит/сек
Каналы                                   : 6 каналов
ChannelLayout                            : L R C LFE Ls Rs
Частота                                  : 48,0 КГц
Частота кадров                           : 31,250 кадров/сек (1536 SPF)
Битовая глубина                          : 16 бит
Метод сжатия                             : С потерями
Размер потока                            : 349 Мбайт (16%)
Выравнивание                             : Разделение по промежуткам
Продолжительность промежутка             : 42  мс. (1,00 видеокадр)
Время предзагрузки промежутка            : 500  мс.
Заголовок                                : Dub
ServiceKind/String                       : Complete Main
Аудио #2
Идентификатор                            : 2
Формат файла                                   : AC-3
Формат файла/Информация                        : Audio Coding 3
Коммерческое название                    : Dolby Digital
Идентификатор кодека                     : 2000
Продолжительность                        : 1 ч. 48 м.
Вид битрейта                             : Постоянный
Битрейт                                  : 384 Кбит/сек
Каналы                                   : 6 каналов
ChannelLayout                            : L R C LFE Ls Rs
Частота                                  : 48,0 КГц
Частота кадров                           : 31,250 кадров/сек (1536 SPF)
Битовая глубина                          : 16 бит
Метод сжатия                             : С потерями
Размер потока                            : 299 Мбайт (13%)
Выравнивание                             : Разделение по промежуткам
Продолжительность промежутка             : 42  мс. (1,00 видеокадр)
Время предзагрузки промежутка            : 500  мс.
Заголовок                                : Tycoon
ServiceKind/String                       : Complete Main
Аудио #3
Идентификатор                            : 3
Формат файла                                   : AC-3
Формат файла/Информация                        : Audio Coding 3
Коммерческое название                    : Dolby Digital
Идентификатор кодека                     : 2000
Продолжительность                        : 1 ч. 48 м.
Вид битрейта                             : Постоянный
Битрейт                                  : 384 Кбит/сек
Каналы                                   : 6 каналов
ChannelLayout                            : L R C LFE Ls Rs
Частота                                  : 48,0 КГц
Частота кадров                           : 31,250 кадров/сек (1536 SPF)
Битовая глубина                          : 16 бит
Метод сжатия                             : С потерями
Размер потока                            : 299 Мбайт (13%)
Выравнивание                             : Разделение по промежуткам
Продолжительность промежутка             : 42  мс. (1,00 видеокадр)
Время предзагрузки промежутка            : 500  мс.
Заголовок                                : Eng
ServiceKind/String                       : Complete Main

Скриншоты




[geo-torrent.biz]_t_5776360.torrent
Torrent: Registered ·  [ 2019-09-11 10:33 ] ·  063ed05e130de1e051efa9a53a8ceecaadc29fde

16 KB

Status: checked
Completed: 0 times
Size: 2.94 GB
Rating: 
(Votes: 0)
Say thanks: 0  Thanks
Похожие темы
[Profile]    [PM]
Display posts from previous:    
Reply to topic

The time now is: Today 01:26

All times are GMT + 7 Hours



You cannot post new topics in this forum
You cannot reply to topics in this forum
You cannot edit your posts in this forum
You cannot delete your posts in this forum
You cannot vote in polls in this forum
You cannot attach files in this forum
You can download files in this forum