(Stoner Rock) [WEB] Crobot - Motherbrain - 2019, FLAC (tracks), lossless

Reply to topic
DL-List and Torrent activity [Update пиров]
Size:  322 MB   |    Registered:  29 days   |    Completed:  0 times

Seeder not seen: Never

 
   
 
 
 
Author Message

Генри

Post 15-Sep-2019 00:42

[Quote]

Crobot - Motherbrain- Жанр: Stoner Rock
Носитель: WEB
Год издания: 2019-08-23
Издатель-лейбл: Mascot Records
Страна исполнителя: USA
Аудиокодек: FLAC (*.flac)
Тип рипа: tracks
Битрейт аудио: lossless
Продолжительность: 00:43:32
Источник: интернет
Наличие сканов: нет

Треклист:
01. Burn (3:25)
02. Keep Me Down (3:48)
03. Drown (4:01)
04. Low Life (3:37)
05. Alpha Dawg (3:51)
06. Stoning The Devil (4:34)
07. Gasoline (3:34)
08. Destroyer (3:54)
09. Blackout (3:59)
10. After Life (3:51)
11. The Hive (3:58)

auCDtect

CUE Corrector v. 8.3.5 / b. 928 (Aug. 14, 2019)————————————————————————————————————————————————————————————————————————Crobot / Motherbrain
Folder: Crobot - 2019 - Motherbrain [FLAC]Audio files: 01 Burn.flac [03:24.733; FLAC • 1087 kbps • 16 bit \ 44100 Hz • stereo; 26.54 MB (27 829 791 B)] 02 Keep Me Down.flac [03:48.387; FLAC • 1047 kbps • 16 bit \ 44100 Hz • stereo; 28.52 MB (29 904 216 B)] 03 Drown.flac [04:01.467; FLAC • 1052 kbps • 16 bit \ 44100 Hz • stereo; 30.29 MB (31 763 757 B)] 04 Low Life.flac [03:36.520; FLAC • 1042 kbps • 16 bit \ 44100 Hz • stereo; 26.90 MB (28 205 005 B)] 05 Alpha Dawg.flac [03:50.667; FLAC • 1104 kbps • 16 bit \ 44100 Hz • stereo; 30.36 MB (31 834 191 B)] 06 Stoning The Devil.flac [04:33.747; FLAC • 1051 kbps • 16 bit \ 44100 Hz • stereo; 34.31 MB (35 972 358 B)] 07 Gasoline.flac [03:34.280; FLAC • 1017 kbps • 16 bit \ 44100 Hz • stereo; 25.98 MB (27 239 820 B)] 08 Destroyer.flac [03:54.267; FLAC • 1055 kbps • 16 bit \ 44100 Hz • stereo; 29.47 MB (30 897 641 B)] 09 Blackout.flac [03:58.747; FLAC • 1040 kbps • 16 bit \ 44100 Hz • stereo; 29.61 MB (31 043 576 B)] 10 After Life.flac [03:50.613; FLAC • 1082 kbps • 16 bit \ 44100 Hz • stereo; 29.77 MB (31 214 854 B)] 11 The Hive.flac [03:57.867; FLAC • 1061 kbps • 16 bit \ 44100 Hz • stereo; 30.09 MB (31 549 488 B)]
Accuracy: -m0
File 01 Burn - 100% CDDA [03:24:55]File 02 Keep Me Down - 100% CDDA [03:48:29]File 03 Drown - 99% CDDA [04:01:35]File 04 Low Life - 100% CDDA [03:36:39]File 05 Alpha Dawg - 100% CDDA [03:50:50]File 06 Stoning The Devil - 100% CDDA [04:33:56]File 07 Gasoline - 100% CDDA [03:34:21]File 08 Destroyer - 100% CDDA [03:54:20]File 09 Blackout - 100% CDDA [03:58:56]File 10 After Life - 100% CDDA [03:50:46]File 11 The Hive - 100% CDDA [03:57:65]————— Summary: —————These tracks looks like CDDA with probability 100%.————————————————————————————————————————————————————————————————————————
ANALYZER: auCDtect: CD records authenticity detector, version 0.8.2 Copyright (c) 2004 Oleg Berngardt. All rights reserved. Copyright (c) 2004 Alexander Djourik. All rights reserved.
Time elapsed: 1 m 57 sLog created at August 23, 2019 00:10:32
=== 9B6D5E23E0D644A15A5675DD52852851E0F9841521EF893BCA026AA118171682 ===

CUETools

[CUETools log; Date: 23.08.2019 0:07:45; Version: 2.1.6]Padded some input files to a frame boundary.[CTDB TOCID: 79gVrBaWR_G4j4x8gvOnt7Ipgk8-] disk not present in database.[AccurateRip ID: 00114e58-0096c04a-8d09f70b] disk not present in database.
Track Peak [ CRC32 ] [W/O NULL] -- 98,8 [49298E44] [AC881267] 01 98,8 [87D5D73F] [79E22520] 02 98,8 [5BEB1D1B] [62EF307F] 03 98,8 [64B92B02] [96692F1A] 04 98,8 [A10390A4] [8DA3C213] 05 98,8 [FC496660] [82949A56] 06 98,8 [3A0F9B04] [3378B9C6] 07 98,8 [DDADBE06] [455AAA52] 08 98,8 [2739B1FF] [EA0205BB] 09 98,8 [ED3E509A] [0AA02091] 10 98,8 [B543FDFD] [845EFF49] 11 98,8 [48F080FF] [1968648D]

DR

foobar2000 1.4.6 / Замер динамического диапазона (DR) 1.1.1Дата отчёта: 2019-08-23 00:07:59
--------------------------------------------------------------------------------Анализ: Crobot / Motherbrain--------------------------------------------------------------------------------
DR Пики RMS Продолжительность трека--------------------------------------------------------------------------------DR6 -0.10 дБ -7.32 дБ 3:25 01-BurnDR5 -0.10 дБ -6.67 дБ 3:48 02-Keep Me DownDR6 -0.10 дБ -7.37 дБ 4:01 03-DrownDR6 -0.10 дБ -7.33 дБ 3:37 04-Low LifeDR6 -0.10 дБ -7.02 дБ 3:51 05-Alpha DawgDR6 -0.10 дБ -6.81 дБ 4:34 06-Stoning The DevilDR5 -0.10 дБ -6.91 дБ 3:34 07-GasolineDR6 -0.10 дБ -6.90 дБ 3:54 08-DestroyerDR6 -0.10 дБ -7.53 дБ 3:59 09-BlackoutDR6 -0.10 дБ -6.67 дБ 3:51 10-After LifeDR6 -0.10 дБ -7.43 дБ 3:58 11-The Hive--------------------------------------------------------------------------------
Количество треков: 11Реальные значения DR: DR6
Частота: 44100 ГцКаналов: 2Разрядность: 16Битрейт: 1032 кбит/сКодек: FLAC================================================================================


[geo-torrent.biz]_t_5769108.torrent
Torrent: Registered ·  [ 2019-09-15 00:42 ] ·  5043d412332fc09b7c93b9479918a57c9d089bcc

14 KB

Status: checked
Completed: 0 times
Size: 322 MB
Rating: 
(Votes: 0)
Say thanks: 0  Thanks
Похожие темы
[Profile]    [PM]
Display posts from previous:    
Reply to topic

The time now is: Today 17:23

All times are GMT + 7 Hours



You cannot post new topics in this forum
You cannot reply to topics in this forum
You cannot edit your posts in this forum
You cannot delete your posts in this forum
You cannot vote in polls in this forum
You cannot attach files in this forum
You can download files in this forum