(Stoner/ Doom Metal) [WEB] Monolord - No Comfort - 2019, FLAC (tracks), lossless

Reply to topic
DL-List and Torrent activity [Update пиров]
Size:  282 MB   |    Registered:  23 days   |    Completed:  0 times

Seeder not seen: Never

 
   
 
 
 
Author Message

Генри

Post 20-Sep-2019 20:11

[Quote]

Monolord - No Comfort- Жанр: Stoner/ Doom Metal
Носитель: WEB
Год издания: 2019-09-20
Издатель-лейбл: Relapse Records
Страна исполнителя: Sweden
Аудиокодек: FLAC (*.flac)
Тип рипа: tracks
Битрейт аудио: lossless
Продолжительность: 00:47:07
Источник: интернет
Наличие сканов: нет

Треклист:
01. The Bastard Son (9:26)
02. The Last Leaf (5:15)
03. Larvae (9:38)
04. Skywards (6:55)
05. Alone Together (4:58)
06. No Comfort (10:55)

auCDtect

CUE Corrector v. 8.3.5 / b. 928 (Aug. 14, 2019)————————————————————————————————————————————————————————————————————————Monolord / No Comfort
Folder: Monolord - 2019 - No Comfort [FLAC]Audio files: 01 The Bastard Son.flac [09:26.027; FLAC • 877 kbps • 16 bit \ 44100 Hz • stereo; 59.23 MB (62 105 127 B)] 02 The Last Leaf.flac [05:14.667; FLAC • 928 kbps • 16 bit \ 44100 Hz • stereo; 34.84 MB (36 530 443 B)] 03 Larvae.flac [09:38.040; FLAC • 871 kbps • 16 bit \ 44100 Hz • stereo; 60.04 MB (62 959 579 B)] 04 Skywards.flac [06:55.253; FLAC • 843 kbps • 16 bit \ 44100 Hz • stereo; 41.74 MB (43 771 405 B)] 05 Alone Together.flac [04:58.053; FLAC • 610 kbps • 16 bit \ 44100 Hz • stereo; 21.68 MB (22 730 047 B)] 06 No Comfort.flac [10:54.973; FLAC • 819 kbps • 16 bit \ 44100 Hz • stereo; 63.98 MB (67 086 732 B)]
Accuracy: -m3
File 01 The Bastard Son - 100% CDDA [09:26:02]File 02 The Last Leaf - 100% CDDA [05:14:50]File 03 Larvae - 100% CDDA [09:38:03]File 04 Skywards - 100% CDDA [06:55:19]File 05 Alone Together - 100% CDDA [04:58:04]File 06 No Comfort - 100% CDDA [10:54:73]————— Summary: —————These tracks looks like CDDA with probability 100%.————————————————————————————————————————————————————————————————————————
ANALYZER: auCDtect: CD records authenticity detector, version 0.8.2 Copyright (c) 2004 Oleg Berngardt. All rights reserved. Copyright (c) 2004 Alexander Djourik. All rights reserved.
Time elapsed: 35.4 sLog created at September 20, 2019 08:56:21
=== 4F47E0CCE3142485FD794E128BC07EA13AFE4FF8FABD1C850704D9553FD7C439 ===

CUETools

[CUETools log; Date: 20.09.2019 8:54:53; Version: 2.1.6]Padded some input files to a frame boundary.[CTDB TOCID: 6RbHDSO0aKAxo0IXb8zR1GN0CHk-] disk not present in database.[AccurateRip ID: 000b30cb-003b47e2-550b0b06] disk not present in database.
Track Peak [ CRC32 ] [W/O NULL] -- 88,1 [28CA31F6] [A572E3E3] 01 87,9 [13CE328E] [726331C9] 02 88,1 [C7A60F97] [E7A3B8C5] 03 88,1 [2A2C502E] [7B8BF043] 04 87,9 [E5799F13] [18A4FB33] 05 87,9 [B5ADDBF4] [52AD0344] 06 87,9 [1296F720] [F1DAD15F]

DR

foobar2000 1.4.6 / Замер динамического диапазона (DR) 1.1.1Дата отчёта: 2019-09-20 08:51:15
--------------------------------------------------------------------------------Анализ: Monolord / No Comfort--------------------------------------------------------------------------------
DR Пики RMS Продолжительность трека--------------------------------------------------------------------------------DR5 -1.12 дБ -8.19 дБ 9:26 01-The Bastard SonDR5 -1.10 дБ -7.87 дБ 5:15 02-The Last LeafDR5 -1.09 дБ -7.80 дБ 9:38 03-LarvaeDR6 -1.11 дБ -8.94 дБ 6:55 04-SkywardsDR7 -1.12 дБ -12.39 дБ 4:58 05-Alone TogetherDR5 -1.11 дБ -7.61 дБ 10:55 06-No Comfort--------------------------------------------------------------------------------
Количество треков: 6Реальные значения DR: DR5
Частота: 44100 ГцКаналов: 2Разрядность: 16Битрейт: 815 кбит/сКодек: FLAC================================================================================


[geo-torrent.biz]_t_5780067.torrent
Torrent: Registered ·  [ 2019-09-20 20:11 ] ·  ef09763623340a3cd1fa0ca3d5b7afbe4d29151e

12 KB

Status: checked
Completed: 0 times
Size: 282 MB
Rating: 
(Votes: 0)
Say thanks: 0  Thanks
Похожие темы
[Profile]    [PM]
Display posts from previous:    
Reply to topic

The time now is: Today 18:14

All times are GMT + 7 Hours



You cannot post new topics in this forum
You cannot reply to topics in this forum
You cannot edit your posts in this forum
You cannot delete your posts in this forum
You cannot vote in polls in this forum
You cannot attach files in this forum
You can download files in this forum