(RIO / Avant-Prog / Contemporary Folk) [CD] Die Knodel [Die Knödel] - Die Noodle! - 1995, FLAC (tracks+.cue), lossless

Reply to topic
DL-List and Torrent activity [Update пиров]
Size:  276 MB   |    Registered:  5 days   |    Completed:  0 times

Seeder not seen: Never

 
   
 
 
 
Author Message

Пушистый

Post 09-Oct-2019 02:50

[Quote]

Die Knodel [Die Knödel] / Die Noodle!
Жанр: RIO / Avant-Prog / Contemporary Folk
Носитель: CD
Страна-производитель диска (релиза): Switzerland
Год издания: 1995
Издатель (лейбл): RecRec Music
Номер по каталогу: ReCDec 64
Страна исполнителя (группы): Austria
Аудиокодек: FLAC (*.flac)
Тип рипа: tracks+.cue
Продолжительность: 43:02 min
Источник: собственный рип
Наличие сканов в содержимом раздачи: [600dpi]
Треклист:
1. Die Wurst (Die Noodle!). 4:09
2. Roll- & Rockkragen. 3:10
3. Chinese Lanterns. 5:13
4. Es War Einmal Im Erdbeerland... 7:07
5. Fast Food In A. 3:30
6. Noticknotock. 4:15
7. Seifenblasen Im Mondschein. 1:28
8. Muischka. 3:53
9. Big Rape. 3:11
10. Dschungellied. 3:52
11. Eine Kleine Zugabe. 3:12

Лог создания рипа

Exact Audio Copy V1.0 beta 4 from 7. December 2014
EAC extraction logfile from 8. October 2019, 13:14
Die Knödel / Die Noodle!
Used drive : ATAPI iHAS124 E Adapter: 1 ID: 0
Read mode : SecureUtilize accurate stream : YesDefeat audio cache : YesMake use of C2 pointers : No
Read offset correction : 6Overread into Lead-In and Lead-Out : NoFill up missing offset samples with silence : YesDelete leading and trailing silent blocks : NoNull samples used in CRC calculations : YesUsed interface : Native Win32 interface for Win NT & 2000Gap handling : Appended to previous track
Used output format : User Defined EncoderSelected bitrate : 768 kBit/sQuality : HighAdd ID3 tag : NoCommand line compressor : C:\Program Files (x86)\flac-1.3.2-win\win64\flac.exeAdditional command line options : -8 -V -T "ARTIST=%artist%" -T "TITLE=%title%" -T "ALBUM=%albumtitle%" -T "DATE=%year%" -T "TRACKNUMBER=%tracknr%" -T "GENRE=%genre%" -T "COMMENT=ripped by vp_sunset" %source% -o %dest%
TOC of the extracted CD
Track | Start | Length | Start sector | End sector --------------------------------------------------------- 1 | 0:00.00 | 4:12.05 | 0 | 18904 2 | 4:12.05 | 3:12.57 | 18905 | 33361 3 | 7:24.62 | 5:15.43 | 33362 | 57029 4 | 12:40.30 | 7:07.10 | 57030 | 89064 5 | 19:47.40 | 3:12.65 | 89065 | 103529 6 | 23:00.30 | 4:17.47 | 103530 | 122851 7 | 27:18.02 | 1:28.68 | 122852 | 129519 8 | 28:46.70 | 3:55.07 | 129520 | 147151 9 | 32:42.02 | 3:13.53 | 147152 | 161679 10 | 35:55.55 | 3:54.52 | 161680 | 179281 11 | 39:50.32 | 3:12.18 | 179282 | 193699
Track 1
Filename C:\_EAC\01. Die Wurst (Die Noodle!).wav
Pre-gap length 0:00:02.00
Peak level 88.3 % Extraction speed 1.9 X Track quality 100.0 % Test CRC 7F0E20C7 Copy CRC 7F0E20C7 Accurately ripped (confidence 3) [BBE6DE7E] (AR v2) Copy OK
Track 2
Filename C:\_EAC\02. Roll- & Rockkragen.wav
Pre-gap length 0:00:02.57
Peak level 91.2 % Extraction speed 2.0 X Track quality 100.0 % Test CRC C0C9B21B Copy CRC C0C9B21B Accurately ripped (confidence 3) [7042A796] (AR v2) Copy OK
Track 3
Filename C:\_EAC\03. Chinese Lanterns.wav
Pre-gap length 0:00:02.06
Peak level 87.5 % Extraction speed 2.3 X Track quality 100.0 % Test CRC 8F828D7B Copy CRC 8F828D7B Accurately ripped (confidence 2) [36500731] (AR v2) Copy OK
Track 4
Filename C:\_EAC\04. Es War Einmal Im Erdbeerland....wav
Pre-gap length 0:00:02.04
Peak level 90.5 % Extraction speed 2.7 X Track quality 100.0 % Test CRC 88EEE84B Copy CRC 88EEE84B Accurately ripped (confidence 3) [42A025EB] (AR v2) Copy OK
Track 5
Filename C:\_EAC\05. Fast Food In A.wav
Peak level 88.3 % Extraction speed 1.8 X Track quality 99.9 % Test CRC BBE9B0AA Copy CRC BBE9B0AA Accurately ripped (confidence 3) [5F9473E7] (AR v2) Copy OK
Track 6
Filename C:\_EAC\06. Noticknotock.wav
Pre-gap length 0:00:02.66
Peak level 90.1 % Extraction speed 2.2 X Track quality 99.9 % Test CRC 75636B5B Copy CRC 75636B5B Accurately ripped (confidence 2) [2B71A7ED] (AR v2) Copy OK
Track 7
Filename C:\_EAC\07. Seifenblasen Im Mondschein.wav
Pre-gap length 0:00:01.66
Peak level 68.2 % Extraction speed 2.4 X Track quality 100.0 % Test CRC BB83CE33 Copy CRC BB83CE33 Accurately ripped (confidence 3) [BD90698D] (AR v2) Copy OK
Track 8
Filename C:\_EAC\08. Muischka.wav
Pre-gap length 0:00:00.06
Peak level 84.2 % Extraction speed 3.0 X Track quality 100.0 % Test CRC A118D3FD Copy CRC A118D3FD Accurately ripped (confidence 3) [06C04B09] (AR v2) Copy OK
Track 9
Filename C:\_EAC\09. Big Rape.wav
Pre-gap length 0:00:02.06
Peak level 88.0 % Extraction speed 3.0 X Track quality 100.0 % Test CRC 51DD9ED8 Copy CRC 51DD9ED8 Accurately ripped (confidence 3) [72E900A2] (AR v2) Copy OK
Track 10
Filename C:\_EAC\10. Dschungellied.wav
Pre-gap length 0:00:02.33
Peak level 82.3 % Extraction speed 2.4 X Track quality 99.9 % Test CRC 2AFC29C7 Copy CRC 2AFC29C7 Accurately ripped (confidence 3) [82B88A3A] (AR v2) Copy OK
Track 11
Filename C:\_EAC\11. Eine Kleine Zugabe.wav
Pre-gap length 0:00:02.40
Peak level 91.1 % Extraction speed 2.3 X Track quality 99.9 % Test CRC D6827B3A Copy CRC D6827B3A Accurately ripped (confidence 2) [0C1AC44C] (AR v2) Copy OK
All tracks accurately ripped
No errors occurred
End of status report
---- CUETools DB Plugin V2.1.4
[CTDB TOCID: cTHLZTZ4PRlwkXUAS8OSuQDhuqQ-] foundSubmit result: cTHLZTZ4PRlwkXUAS8OSuQDhuqQ- has been confirmedTrack | CTDB Status 1 | (17/17) Accurately ripped 2 | (17/17) Accurately ripped 3 | (17/17) Accurately ripped 4 | (17/17) Accurately ripped 5 | (17/17) Accurately ripped 6 | (17/17) Accurately ripped 7 | (17/17) Accurately ripped 8 | (17/17) Accurately ripped 9 | (17/17) Accurately ripped 10 | (17/17) Accurately ripped 11 | (17/17) Accurately ripped
==== Log checksum E8B551DE320C0D2C226F9CC70E8396DCC9EEB5F3290E3F5ED7E23E239A4D4AC6 ====

Содержание индексной карты (.CUE)

REM GENRE "Contemporary Folk"REM DATE 1995REM DISCID 9B0A160BREM COMMENT "ExactAudioCopy v1.0b4"PERFORMER "Die Knödel"TITLE "Die Noodle!"FILE "01. Die Wurst (Die Noodle!).wav" WAVE TRACK 01 AUDIO TITLE "Die Wurst (Die Noodle!)" PERFORMER "Die Knodel" INDEX 01 00:00:00 TRACK 02 AUDIO TITLE "Roll- & Rockkragen" PERFORMER "Die Knodel" INDEX 00 04:09:37FILE "02. Roll- & Rockkragen.wav" WAVE INDEX 01 00:00:00 TRACK 03 AUDIO TITLE "Chinese Lanterns" PERFORMER "Die Knodel" INDEX 00 03:10:52FILE "03. Chinese Lanterns.wav" WAVE INDEX 01 00:00:00 TRACK 04 AUDIO TITLE "Es War Einmal Im Erdbeerland..." PERFORMER "Die Knodel" INDEX 00 05:13:40FILE "04. Es War Einmal Im Erdbeerland....wav" WAVE INDEX 01 00:00:00FILE "05. Fast Food In A.wav" WAVE TRACK 05 AUDIO TITLE "Fast Food In A" PERFORMER "Die Knodel" INDEX 01 00:00:00 TRACK 06 AUDIO TITLE "Noticknotock" PERFORMER "Die Knodel" INDEX 00 03:10:15FILE "06. Noticknotock.wav" WAVE INDEX 01 00:00:00 TRACK 07 AUDIO TITLE "Seifenblasen Im Mondschein" PERFORMER "Die Knodel" INDEX 00 04:15:72FILE "07. Seifenblasen Im Mondschein.wav" WAVE INDEX 01 00:00:00 TRACK 08 AUDIO TITLE "Muischka" PERFORMER "Die Knodel" INDEX 00 01:28:63FILE "08. Muischka.wav" WAVE INDEX 01 00:00:00 TRACK 09 AUDIO TITLE "Big Rape" PERFORMER "Die Knodel" INDEX 00 03:53:02FILE "09. Big Rape.wav" WAVE INDEX 01 00:00:00 TRACK 10 AUDIO TITLE "Dschungellied" PERFORMER "Die Knodel" INDEX 00 03:11:28FILE "10. Dschungellied.wav" WAVE INDEX 01 00:00:00 TRACK 11 AUDIO TITLE "Eine Kleine Zugabe" PERFORMER "Die Knodel" INDEX 00 03:52:22FILE "11. Eine Kleine Zugabe.wav" WAVE INDEX 01 00:00:00

Лог проверки качества

-----------------------
DON'T MODIFY THIS FILE
-----------------------
PERFORMER: auCDtect Task Manager, ver. 1.6.0 RC1 build 1.6.0.1Copyright (c) 2008-2010 y-soft. All rights reservedhttp://y-soft.org
ANALYZER: auCDtect: CD records authenticity detector, version 0.8.2Copyright (c) 2004 Oleg Berngardt. All rights reserved.Copyright (c) 2004 Alexander Djourik. All rights reserved.
FILE: 01. Die Wurst (Die Noodle!).flac Size: 25673396 Hash: EC1845ECE66752DB052A8F7927279D08 Accuracy: -m0 Conclusion: CDDA 100% Signature: 309EF292CD72856C3C0BB4B3143E9505BCEC2CB8FILE: 02. Roll- & Rockkragen.flac Size: 16204986 Hash: B979554F88D13BD4491E235E73725D8A Accuracy: -m0 Conclusion: CDDA 100% Signature: 05F691D6827E3AB3E979FC101250BF9B4173714DFILE: 03. Chinese Lanterns.flac Size: 25729226 Hash: FDF65A9B5539EBC5FB4BF22DCB673FB4 Accuracy: -m0 Conclusion: CDDA 100% Signature: 6311CD89B4032F82BB24DD3AA54CAD441474B97CFILE: 04. Es War Einmal Im Erdbeerland....flac Size: 31853716 Hash: 2467A42EA40CCA2A3169977DD2537287 Accuracy: -m0 Conclusion: CDDA 100% Signature: ACE15590ED2D65F08AEDF088099EB4558D6F1FD5FILE: 05. Fast Food In A.flac Size: 19516018 Hash: 57439C31C863570046F5BC05DF38F9CA Accuracy: -m0 Conclusion: CDDA 100% Signature: F48FF2E7BD8CF4484D4FB9D8F6B44902DF635008FILE: 06. Noticknotock.flac Size: 21709291 Hash: 7B55DFD6B1FD5EE63DA361188EE64625 Accuracy: -m0 Conclusion: CDDA 100% Signature: 08BA0861F7C86C129CE3A5897176E29AFF3738A7FILE: 07. Seifenblasen Im Mondschein.flac Size: 5783188 Hash: 054209FF405A607F8C8CF8EFC0E12FBA Accuracy: -m0 Conclusion: CDDA 100% Signature: 30299880575B22E24C8AC2CF02C7CB1CD2FC60F6FILE: 08. Muischka.flac Size: 17738270 Hash: D2FAFAA33ED6EB4836C6C2FD9944A50D Accuracy: -m0 Conclusion: CDDA 100% Signature: 761555D57E6E9593EBD998127394DC266B713E93FILE: 09. Big Rape.flac Size: 18234372 Hash: AC9F55036E05A404D1645C1560CE6612 Accuracy: -m0 Conclusion: CDDA 100% Signature: F289EDB4EDE9C81D38019A144F8BBD2CC330C9E0FILE: 10. Dschungellied.flac Size: 18917529 Hash: A671A0EB7DA44E94D37957B6F73D0936 Accuracy: -m0 Conclusion: CDDA 100% Signature: 911A6B4E63C6D5E5EF0BF36D6CD18AB7563D83E0FILE: 11. Eine Kleine Zugabe.flac Size: 17014612 Hash: 2944DA48427FA0F7B81F44E04A724CC2 Accuracy: -m0 Conclusion: CDDA 100% Signature: 7207FC1174847CB608265B64779740E5B2595AA9

DRM.log

foobar2000 1.3.8 / Dynamic Range Meter 1.1.1log date: 2019-10-08 13:47:21
--------------------------------------------------------------------------------Analyzed: Die Knödel / Die Noodle!--------------------------------------------------------------------------------
DR Peak RMS Duration Track--------------------------------------------------------------------------------DR10 -1.07 dB -13.59 dB 4:12 01-Die Wurst (Die Noodle!)DR11 -0.79 dB -15.44 dB 3:13 02-Roll- & RockkragenDR11 -1.16 dB -15.32 dB 5:16 03-Chinese LanternsDR12 -0.87 dB -16.55 dB 7:07 04-Es War Einmal Im Erdbeerland...DR10 -1.08 dB -13.16 dB 3:13 05-Fast Food In ADR14 -3.31 dB -23.25 dB 1:29 07-Seifenblasen Im MondscheinDR9 -1.48 dB -14.85 dB 3:55 08-MuischkaDR10 -1.11 dB -14.32 dB 3:14 09-Big RapeDR13 -1.69 dB -18.71 dB 3:55 10-DschungelliedDR11 -0.81 dB -14.98 dB 3:12 11-Eine Kleine Zugabe--------------------------------------------------------------------------------
Number of tracks: 10Official DR value: DR11
Samplerate: 44100 HzChannels: 2Bits per sample: 16Bitrate: 703 kbpsCodec: FLAC================================================================================

Об альбоме (сборнике)

Music By – Christof Dienz* (tracks: 1 to 7, 10)
Produced by Die Knödel, Momo Rossel
Engineer by Toni Stabentheiner

Состав

– Walter Seebacher / clarinet, dulcimer
– Andreas Lackner / trumpet, flugelhorn, bass
– Christof Dienz / bassoon, dulcimer, voice
– Julia Fiegl / violin, dulcimer, voice
– Cathi Aglibut / violin, viola, voice
– Michael Öttl / guitar
– Margreth Köll / harp
– Alexandra Pedaring / bass, dulcimer


[geo-torrent.biz]_t_5788580.torrent
Torrent: Registered ·  [ 2019-10-09 02:50 ] ·  c5d459592669826de96326395fc3a0dbc54dee64

13 KB

Status: checked
Completed: 0 times
Size: 276 MB
Rating: 
(Votes: 0)
Say thanks: 0  Thanks
Похожие темы
[Profile]    [PM]
Display posts from previous:    
Reply to topic

The time now is: Today 18:04

All times are GMT + 7 Hours



You cannot post new topics in this forum
You cannot reply to topics in this forum
You cannot edit your posts in this forum
You cannot delete your posts in this forum
You cannot vote in polls in this forum
You cannot attach files in this forum
You can download files in this forum