Лиса и кит / Fox and the Whale (Робин Джозеф / Robin Joseph) [2016, Канада, мультфильм, короткометражка, фэнтези, приключения, семейный, WEBRip-AVC]

Reply to topic
DL-List and Torrent activity [Update пиров]
Size:  105 MB   |    Registered:  4 months 6 days   |    Completed:  0 times

Seeder not seen: Never

 
   
 
 
 
Author Message

КЭП

Post 11-Oct-2019 22:35

[Quote]

Победитель и номинанты премии "Оскар" за "Лучший короткометражный анимационный фильм" 2018г.-Лиса и кит
Fox and the Whale
Год выхода: 2016
Страна: Канада
Жанр: мультфильм, короткометражка, фэнтези, приключения, семейный
Продолжительность: 00:12:03
Перевод: не требуется
субтитры: отсутствуют-Режиссёр: Робин Джозеф : Robin Joseph-Описание: История о любопытном лисе, который отправляется на поиски неуловимого кита в путешествие, полное надежды и тоски.- -Качество: WEBRip-AVC (Источник: none WEBRip 1080p)
Формат файла: MKV
Видео кодек: AVC
Аудио кодек: AAC
Видео: 1098x460, 24 fps, ~960 kbps, 0.079 bit/pixel
Аудио: 48kHz, AAC, 2ch, 256 kbps

MediaInfo

Общее
Уникальный идентификатор : 295047250552389792085029820825953123995 (0xDDF8089275AC6BD5B49E7923D20C3E9B)
Полное имя : D:\Mult Rip\Ok\Fox and the Whale.2016.WEBRip-AVC.mkv
Формат файла : Matroska
Версия формата : Version 4 / Version 2
Размер файла : 105 Мбайт
Продолжительность : 12 м. 3 с.
Общий поток : 1218 Кбит/сек
Дата кодирования : UTC 2019-09-04 12:52:29
Программа кодирования : mkvmerge v37.0.0 ('Leave It') 64-bit
Библиотека кодирования : libebml v1.3.9 + libmatroska v1.5.2
Видео
Идентификатор : 1
Формат файла : AVC
Формат файла/Информация : Advanced Video Codec
Профиль формата : High@L4.1
Настройки формата : CABAC / 9 Ref Frames
Параметр CABAC формата : Да
Параметр RefFrames формата : 9 кадров
Идентификатор кодека : V_MPEG4/ISO/AVC
Продолжительность : 12 м. 2 с.
Битрейт : 960 Кбит/сек
Ширина : 1098 пикселей
Высота : 460 пикселей
Соотношение сторон : 2,40:1
Режим частоты кадров : Постоянный
Частота кадров : 24,000 кадра/сек
Цветовое пространство : YUV
Субдискретизация насыщенности : 4:2:0
Битовая глубина : 8 бит
Тип развёртки : Прогрессивная
Бит/(Пиксели*Кадры) : 0.079
Размер потока : 82,8 Мбайт (79%)
Библиотека кодирования : x264 core 152 r2851kMod ba24899
Настройки программы : cabac=1 / ref=9 / deblock=1:-2:-1 / analyse=0x3:0x133 / me=umh / subme=11 / psy=1 / fade_compensate=0.00 / psy_rd=1.00:0.05 / mixed_ref=1 / me_range=32 / chroma_me=1 / trellis=2 / 8x8dct=1 / cqm=0 / deadzone=21,11 / fast_pskip=0 / chroma_qp_offset=-3 / threads=6 / lookahead_threads=1 / sliced_threads=0 / nr=0 / decimate=1 / interlaced=0 / bluray_compat=0 / constrained_intra=0 / bframes=16 / b_pyramid=2 / b_adapt=2 / b_bias=0 / direct=3 / weightb=1 / open_gop=0 / weightp=2 / keyint=250 / keyint_min=23 / scenecut=40 / intra_refresh=0 / rc_lookahead=70 / rc=crf / mbtree=0 / crf=20.0000 / qcomp=0.60 / qpmin=0 / qpmax=69 / qpstep=4 / vbv_maxrate=50000 / vbv_bufsize=62500 / crf_max=0.0 / nal_hrd=none / filler=0 / ip_ratio=1.40 / pb_ratio=1.30 / aq=3:0.80
Default : Да
Forced : Нет
Цветовой диапазон : Limited
Основные цвета : BT.709
Характеристики трансфера : BT.709
Коэффициенты матрицы : BT.709
Аудио
Идентификатор : 2
Формат файла : AAC
Формат файла/Информация : Advanced Audio Codec
Профиль формата : LC
Идентификатор кодека : A_AAC-2
Продолжительность : 12 м. 3 с.
Битрейт : 256 Кбит/сек
Каналы : 2 канала
Расположение каналов : Front: L R
Частота : 48,0 КГц
Частота кадров : 46,875 кадров/сек (1024 SPF)
Метод сжатия : С потерями
Размер потока : 22,1 Мбайт (21%)
Default : Да
Forced : Нет


[geo-torrent.biz]_t_5777288.torrent
Torrent: Registered ·  [ 2019-10-11 22:33 ] ·  7527af9cdcceed4d3507ed8f83e7007b14efa38f

17 KB

Status: checked
Completed: 0 times
Size: 105 MB
Rating: 
(Votes: 0)
Say thanks: 0  Thanks
Похожие темы
[Profile]    [PM]
Display posts from previous:    
Reply to topic

The time now is: Today 01:19

All times are GMT + 7 Hours



You cannot post new topics in this forum
You cannot reply to topics in this forum
You cannot edit your posts in this forum
You cannot delete your posts in this forum
You cannot vote in polls in this forum
You cannot attach files in this forum
You can download files in this forum