Кэролайн. Свидание в полночь / Caroline at Midnight (Скотт Макгиннис / Scott McGinnis) [1994, США, триллер, мелодрама, VHSRip] [Promo Copy] AVO (Леонид Володарский)

Reply to topic
DL-List and Torrent activity [Update пиров]
Size:  1.37 GB   |    Registered:  3 months   |    Completed:  0 times

Seeder not seen: Never

 
   
 
 
 
Author Message

Кейт

Post 26-Oct-2019 19:50

[Quote]

Кэролайн. Свидание в полночь / Caroline at Midnight
Страна: США
Жанр: триллер, мелодрама
Год выхода: 1994
Продолжительность: 01:29:22
Перевод: Авторский (одноголосый закадровый) Леонид Володарский
Субтитры: нет
Режиссер: Скотт Макгиннис / Scott McGinnis
В ролях: Клэйтон Ронер
Миа Сара
Тим Дейли
Пол Ле Мэт
Джадд Нельсон
Ксандер Беркли
Вирджиния Мэдсен
Кэролин Барклай
Стэйси Трэвис
Хоторн Джеймс
Описание: Журналисту Джеку Линчу (Дэйли), расследующему коррупцию в полиции, звонит его старая знакомая и назначает свидание на… кладбище. Каково же было его удивление, когда на назначенном месте он обнаруживает могилу с ее именем. Оказывается, она скоропостиженно разбилась на машине при весьма подозрительных обстоятельствах. Как тут не затеяться новому расследованию, которое еще более запутает интригу.
Доп. информация: Оцифровка VHS (личный архив) и получение VHSRip alenavova
Эксклюзив для . При размещении данного релиза на других сайтах ссылка на автора alenavova обязательна.


Сэмпл: http://yadi.sk/i/M_xOqorNsJFGkA
Качество видео: VHSRip
Формат файла: AVI
Видео: 704x512 (1.38:1), 25 fps, XviD build 73 ~1989 kbps avg, 0.22 bit/pixel
Аудио: 48 kHz, AC3 Dolby Digital, 2/0 (L,R) ch, ~192 kbps

MediaInfo

Кэрролайн. Свидание в полночь - Caroline at Midnight [by alenavova].aviFormat : AVIFormat/Info : Audio Video InterleaveFile size : 1.37 GiBDuration : 1 h 29 minOverall bit rate : 2 191 kb/sMovie name : Кэрролайн. Свидание в полночь - Caroline at Midnight [by alenavova]Director : by alenavovaWriting application : VirtualDubMod 1.5.10.3 | www.virtualdub-fr.org || (build 2550/release)Copyright : Edich2Comment :
VideoID : 0Format : MPEG-4 VisualFormat profile : Advanced Simple@L5Format settings : BVOP1 / Custom MatrixFormat settings, BVOP : 1Format settings, QPel : NoFormat settings, GMC : No warppointsFormat settings, Matrix : CustomCodec ID : XVIDCodec ID/Hint : XviDDuration : 1 h 29 minBit rate : 1 990 kb/sWidth : 704 pixelsHeight : 512 pixelsDisplay aspect ratio : 1.375Frame rate : 25.000 FPSColor space : YUVChroma subsampling : 4:2:0Bit depth : 8 bitsScan type : ProgressiveCompression mode : LossyBits/(Pixel*Frame) : 0.221Stream size : 1.24 GiB (91%)Writing library : XviD 73
AudioID : 1Format : AC-3Format/Info : Audio Coding 3Codec ID : 2000Duration : 1 h 29 minBit rate mode : ConstantBit rate : 192 kb/sChannel(s) : 2 channelsChannel positions : Front: L RSampling rate : 48.0 kHzFrame rate : 31.250 FPS (1536 SPF)Bit depth : 16 bitsCompression mode : LossyStream size : 123 MiB (9%)Alignment : Split accross interleavesInterleave, duration : 40 ms (1.00 video frame)Interleave, preload duratio : 500 msService kind : Complete Main


[geo-torrent.biz]_t_5796419.torrent
Torrent: Registered ·  [ 2019-10-26 19:50 ] ·  22d8a765c23e9309f9c11dce620a4a538fc8b9f2

14 KB

Status: checked
Completed: 0 times
Size: 1.37 GB
Rating: 
(Votes: 0)
Say thanks: 0  Thanks
Похожие темы
[Profile]    [PM]
Display posts from previous:    
Reply to topic

The time now is: Today 07:03

All times are GMT + 7 Hours



You cannot post new topics in this forum
You cannot reply to topics in this forum
You cannot edit your posts in this forum
You cannot delete your posts in this forum
You cannot vote in polls in this forum
You cannot attach files in this forum
You can download files in this forum