Последние дни диско / The Last Days of Disco (Уит Стиллман / Whit Stillman) [1998, США, комедия, мелодрама, музыка, HDRip] AVO (Сергей Визгунов)

Reply to topic
DL-List and Torrent activity [Update пиров]
Size:  2.05 GB   |    Registered:  2 months 22 days   |    Completed:  0 times

Seeder not seen: Never

 
   
 
 
 
Author Message

Кейт

Post 04-Nov-2019 19:48

[Quote]

Последние дни диско / The Last Days of Disco
Страна: США
Жанр: комедия, мелодрама, музыка
Год выхода: 1998
Продолжительность: 01:53:54
Перевод: Авторский (одноголосый закадровый) Сергей Визгунов
Субтитры: нет
Режиссер: Уит Стиллман / Whit Stillman
В ролях: Кейт Бекинсейл, Хлоя Севиньи, Крис Айгемэн, Маккензи Остин, Аманда Харкер, Мэтт Кееслар, Роберт Леонард, Кейт Смит, Дженнифер Билз
Описание: Две молодые девушки Алиса и Шарлотта из Манхэттена работают в Нью-Йоркском издательстве в начале 80-х гг. Они не близкие подруги, а просто знакомые, вместе встретившиеся в поисках музыки, знакомств и романтики. Их третьей соседкой становится взять третью соседку по комнате Холли, и в том числе с целью привлечения дополнительного капитала, поскольку большую часть денег они тратят на развлечения. Девушки знакомятся с одним из менеджеров клуба, где они постоянно тусуются, Десом (Крис Айгеман). Он устраивает им «свободный вход», а также помогает найти парней на одну ночь и для продолжительных отношений. Девушки переживают, что рано или поздно эпоха дискотек и безумного веселья закончится, а клуб могут закрыть....

Сэмпл: http://multi-up.com/1245349
Качество видео: НDRip (Источник: none BDRip 1080p)
Формат файла: AVI
Видео: XviD 73, 720x400, (16:9), 23,976 fps, 2116 Кбит/с, 8 бит, 0.30 bit/pixel
Аудио: Русский (АС3, 6 ch (Front: L C R, Side: L R, LFE), 48,0 KHz, 448 Kbps

MediaInfo

ОбщееПолное имя : E:\Последние дни диско (комедия, мелодрама 1998 год).aviФормат файла : AVIФормат файла/Информация : Audio Video InterleaveПрофиль формата : OpenDMLРазмер файла : 2,05 ГбайтПродолжительность : 1 ч. 53 м.Общий поток : 2576 Кбит/секПрограмма кодирования : VirtualDubMod 1.5.10.3 | www.virtualdub-fr.org || (build 2550/release)Библиотека кодирования : VirtualDubMod build 2550/release
ВидеоИдентификатор : 0Формат файла : MPEG-4 VisualПрофиль формата : Advanced Simple@L5Параметр BVOP формата : 2Параметр QPel формата : НетПараметр GMC формата : Без точки переходаПараметр матрицы формата : ВыборочнаяИдентификатор кодека : XVIDИдентификатор кодека/Подсказка : XviDПродолжительность : 1 ч. 53 м.Битрейт : 2116 Кбит/секШирина : 720 пикселейВысота : 400 пикселейСоотношение сторон : 16:9Частота кадров : 23,976 (23976/1000) кадра/секЦветовое пространство : YUVСубдискретизация насыщенности : 4:2:0Битовая глубина : 8 битТип развёртки : ПрогрессивнаяМетод сжатия : С потерямиБит/(Пиксели*Кадры) : 0.306Размер потока : 1,68 Гбайт (82%)Библиотека кодирования : XviD 73
АудиоИдентификатор : 1Формат файла : AC-3Формат файла/Информация : Audio Coding 3Расширение режима : CM (complete main)Параметр Endianness формата : BigИдентификатор кодека : 2000Продолжительность : 1 ч. 53 м.Вид битрейта : ПостоянныйБитрейт : 448 Кбит/секКаналы : 6 каналовРасположение каналов : Front: L C R, Side: L R, LFEЧастота : 48,0 КГцЧастота кадров : 31,250 кадров/сек (1536 spf)Метод сжатия : С потерямиРазмер потока : 365 Мбайт (17%)Выравнивание : Разделение по промежуткамПродолжительность промежутка : 42 мс. (1,00 видеокадр)Время предзагрузки промежутка : 500 мс.

Скриншот c названием фильма

Скриншоты



[geo-torrent.biz]_t_5800610.torrent
Torrent: Registered ·  [ 2019-11-04 19:48 ] ·  ff7562a18d1bd2c05e681f2319e785e6fcd45ced

11 KB

Status: checked
Completed: 0 times
Size: 2.05 GB
Rating: 
(Votes: 0)
Say thanks: 0  Thanks
Похожие темы
[Profile]    [PM]
Display posts from previous:    
Reply to topic

The time now is: Today 07:22

All times are GMT + 7 Hours



You cannot post new topics in this forum
You cannot reply to topics in this forum
You cannot edit your posts in this forum
You cannot delete your posts in this forum
You cannot vote in polls in this forum
You cannot attach files in this forum
You can download files in this forum