Робин Гуд из Эльдорадо / Robin Hood of El Dorado (Уильям А. Уэллмен / William A. Wellman) [1936, США, вестерн, драма, DVDRip-AVC] VO (Алексей Alassea Крюков) + Sub Rus (Свен Железнов) + Original Eng

Reply to topic
DL-List and Torrent activity [Update пиров]
Size:  1.47 GB   |    Registered:  1 month 29 days   |    Completed:  0 times

Seeder not seen: Never

 
   
 
 
 
Author Message

Генри

Post 28-Nov-2019 02:35

[Quote]

Робин Гуд из Эльдорадо / Robin Hood of El Dorado
Страна: США
Студия: Metro-Goldwyn-Mayer (MGM)
Жанр: вестерн, драма
Год выхода: 1936
Продолжительность: 01:25:03
Перевод: Одноголосый закадровый - Алексей Alassea Крюков
Субтитры: русские (Свен Железнов)
Оригинальная аудиодорожка: английский
Режиссёр: Уильям А. Уэллмен / William A. Wellman
Композитор: Херберт Стотхарт / Herbert Stothart
В ролях: Уорнер Бакстер, Энн Лоринг, Брюс Кэбот, Марго, Дж. Кэролл Нейш, Соледад Хименес, Карлос Де Валдез, Эрик Линден, Эдгар Кеннеди, Чарльз Троубридж ...
Описание: В 1848 году на лесопилке Саттера в Калифорнии нашли золото. Началась Золотая Лихорадка. Страну наводнили американские проходимцы, жадные до быстрой наживы. Проживавшим в Калифорнии мексиканцам пришлось несладко. Их сгоняли с родных земель, грабили, убивали. Когда несчастья коснулись Хоакина Мурьеты и его родных, он встал на путь жестокого мщения. Калифорния наполнилась криками умирающих американцев. Золотоискатели волей-неволей объединились, чтобы истребить Хоакина и его мексиканцев.--IMDbКиноПоиск--Фильм озвучен благодаря поддержке добрых людей из 7букв Вестерн / группа Джесси Джеймса: Анатолий Пысин, Сергей Маталасов, Виталий Худолеев, Валера Симанцев, Григорий Помазанов, Андрей Саратовский, Влад Дед, Антон Шатов, Айдар Нигматзянов, Андрей Андрющенко, Артем Дробышев, Татьяна Горина, Алексей Смолин, Денис Картавцев, Федор Смолов, Олег Форсюк, Олег Галаган, Алексей Сарыков, Илья Ильченко и Дмитрий Бородин. За что им искренняя благодарность!Отдельная благодарность Alassea за предоставленную русскую звуковую дорожку и субтитрыПеревод: Свен Железнов
Закадровый текст: Алексей Alassea Крюков
--Сэмпл: http://sendfile.su/1531225
Качество видео: DVDRip-AVC
Формат файла: MKV
Видео: AVC, 656x480 (1.37:1), 23.976 fps, 1890 Kbps
Аудио 1: AC3, 48.0 KHz, 2 ch., 192 Kbps, Русский
Аудио 2: AC3, 48.0 KHz, 2 ch., 384 Kbps, Английский

MediaInfo

Общее
Уникальный идентификатор : 253395287070094275390767129373176005499 (0xBEA2283896F2E044A0BE1A1D2F24837B)
Полное имя : Z:\РАЗДАЧИ\Robin Hood of El Dorado 1936.mkv
Формат файла : Matroska
Версия формата : Version 2
Размер файла : 1,47 Гбайт
Продолжительность : 1 ч. 25 м.
Общий поток : 2468 Кбит/сек
Дата кодирования : UTC 2019-11-24 10:36:23
Программа кодирования : mkvmerge v7.8.0 ('River Man') 32bit built on Apr 3 2015 12:11:22
Библиотека кодирования : libebml v1.3.1 + libmatroska v1.4.2
Видео
Идентификатор : 1
Формат файла : AVC
Формат файла/Информация : Advanced Video Codec
Профиль формата : High@L3.1
Параметр CABAC формата : Да
Параметр ReFrames формата : 9 кадров
Идентификатор кодека : V_MPEG4/ISO/AVC
Продолжительность : 1 ч. 25 м.
Битрейт : 1890 Кбит/сек
Ширина : 656 пикселей
Высота : 480 пикселей
Соотношение сторон : 4:3
Режим частоты кадров : Постоянный
Частота кадров : 23,976 (24000/1001) кадра/сек
Цветовое пространство : YUV
Субдискретизация насыщенности : 4:2:0
Битовая глубина : 8 бит
Тип развёртки : Прогрессивная
Бит/(Пиксели*Кадры) : 0.250
Размер потока : 1,10 Гбайт (75%)
Библиотека кодирования : x264 core 120 r2164 da19765
Настройки программы : cabac=1 / ref=9 / deblock=1:-1:-1 / analyse=0x3:0x113 / me=hex / subme=7 / psy=1 / psy_rd=1.00:0.15 / mixed_ref=1 / me_range=16 / chroma_me=1 / trellis=1 / 8x8dct=1 / cqm=0 / deadzone=21,11 / fast_pskip=1 / chroma_qp_offset=-3 / threads=6 / sliced_threads=0 / nr=0 / decimate=1 / interlaced=0 / bluray_compat=0 / constrained_intra=0 / bframes=6 / b_pyramid=2 / b_adapt=1 / b_bias=0 / direct=1 / weightb=1 / open_gop=0 / weightp=2 / keyint=240 / keyint_min=23 / scenecut=40 / intra_refresh=0 / rc_lookahead=40 / rc=2pass / mbtree=1 / bitrate=1890 / ratetol=1.0 / qcomp=0.60 / qpmin=0 / qpmax=69 / qpstep=4 / cplxblur=20.0 / qblur=0.5 / ip_ratio=1.40 / aq=1:1.00
Язык : English
Default : Да
Forced : Нет
Аудио #1
Идентификатор : 2
Формат файла : AC-3
Формат файла/Информация : Audio Coding 3
Параметр Endianness формата : Big
Идентификатор кодека : A_AC3
Продолжительность : 1 ч. 25 м.
Вид битрейта : Постоянный
Битрейт : 192 Кбит/сек
Каналы : 2 канала
Расположение каналов : Front: L R
Частота : 48,0 КГц
Частота кадров : 31,250 кадров/сек (1536 spf)
Битовая глубина : 16 бит
Метод сжатия : С потерями
Размер потока : 117 Мбайт (8%)
Язык : Russian
ServiceKind/String : Complete Main
Default : Да
Forced : Нет
Аудио #2
Идентификатор : 3
Формат файла : AC-3
Формат файла/Информация : Audio Coding 3
Параметр Endianness формата : Big
Идентификатор кодека : A_AC3
Продолжительность : 1 ч. 25 м.
Вид битрейта : Постоянный
Битрейт : 384 Кбит/сек
Каналы : 2 канала
Расположение каналов : Front: L R
Частота : 48,0 КГц
Частота кадров : 31,250 кадров/сек (1536 spf)
Битовая глубина : 16 бит
Метод сжатия : С потерями
Размер потока : 234 Мбайт (16%)
Язык : English
ServiceKind/String : Complete Main
Default : Нет
Forced : Нет
Текст
Идентификатор : 4
Формат файла : UTF-8
Идентификатор кодека : S_TEXT/UTF8
Идентификатор кодека/Информация : UTF-8 Plain Text
Язык : Russian
Default : Нет
Forced : Нет


[geo-torrent.biz]_t_5812084.torrent
Torrent: Registered ·  [ 2019-11-28 02:35 ] ·  81d6dc2ef990d1fdecdf1925a95dac156557e232

15 KB

Status: checked
Completed: 0 times
Size: 1.47 GB
Rating: 
(Votes: 0)
Say thanks: 0  Thanks
Похожие темы
[Profile]    [PM]
Display posts from previous:    
Reply to topic

The time now is: Today 07:03

All times are GMT + 7 Hours



You cannot post new topics in this forum
You cannot reply to topics in this forum
You cannot edit your posts in this forum
You cannot delete your posts in this forum
You cannot vote in polls in this forum
You cannot attach files in this forum
You can download files in this forum