(Fusion / Jazz-Rock) [CD] Marbin - Aggressive Hippies - 2015, FLAC (tracks+.cue), lossless

Reply to topic
DL-List and Torrent activity [Update пиров]
Size:  408 MB   |    Registered:  2 months 21 day   |    Completed:  0 times

Seeder not seen: Never

 
   
 
 
 
Author Message

КЭП

Post 15-Jan-2020 04:37

[Quote]

Marbin / Aggressive Hippies
Жанр: Fusion / Jazz-Rock
Носитель: CD
Страна-производитель диска (релиза): Israel
Год издания: 2015
Издатель (лейбл): Marbin Music
Номер по каталогу: none
Страна исполнителя (группы): Israel
Аудиокодек: FLAC (*.flac)
Тип рипа: tracks+.cue
Продолжительность: 53:43 min
Источник: собственный рип
Наличие сканов в содержимом раздачи: [600dpi]
Треклист:
1. Just Music. 6:53
2. Y'All Are Good. 6:27
3. Intro. 3:14
4. African Shabtay. 5:57
5. Juke Joint. 6:36
6. O'l Neckin' 5:21
7. Morning Star. 8:47
8. Aggressive Hippies. 2:38
9. Jambo. 7:54

Лог создания рипа

Exact Audio Copy V1.0 beta 4 from 7. December 2014
EAC extraction logfile from 13. January 2020, 19:58
Marbin / Aggressive Hippies
Used drive : ATAPI iHAS124 F Adapter: 1 ID: 0
Read mode : SecureUtilize accurate stream : YesDefeat audio cache : YesMake use of C2 pointers : No
Read offset correction : 6Overread into Lead-In and Lead-Out : NoFill up missing offset samples with silence : YesDelete leading and trailing silent blocks : NoNull samples used in CRC calculations : YesUsed interface : Native Win32 interface for Win NT & 2000Gap handling : Appended to previous track
Used output format : User Defined EncoderSelected bitrate : 896 kBit/sQuality : HighAdd ID3 tag : NoCommand line compressor : C:\Program Files\flac-1.3.2-win\win64\flac.exeAdditional command line options : -8 -V -T "ARTIST=%artist%" -T "TITLE=%title%" -T "ALBUM=%albumtitle%" -T "DATE=%year%" -T "TRACKNUMBER=%tracknr%" -T "GENRE=%genre%" -T "COMMENT=ripped by vp_sunset" %source% -o %dest%
TOC of the extracted CD
Track | Start | Length | Start sector | End sector --------------------------------------------------------- 1 | 0:00.00 | 6:52.33 | 0 | 30932 2 | 6:52.33 | 6:26.27 | 30933 | 59909 3 | 13:18.60 | 3:13.29 | 59910 | 74413 4 | 16:32.14 | 5:56.22 | 74414 | 101135 5 | 22:28.36 | 6:35.56 | 101136 | 130816 6 | 29:04.17 | 5:20.64 | 130817 | 154880 7 | 34:25.06 | 8:46.08 | 154881 | 194338 8 | 43:11.14 | 2:37.50 | 194339 | 206163 9 | 45:48.64 | 7:54.26 | 206164 | 241739
Track 1
Filename C:\_EAC\01. Just Music.wav
Pre-gap length 0:00:02.00
Peak level 94.4 % Extraction speed 6.0 X Track quality 100.0 % Test CRC 5545244A Copy CRC 5545244A Accurately ripped (confidence 1) [37861177] (AR v2) Copy OK
Track 2
Filename C:\_EAC\02. Y'all are gpod.wav
Peak level 94.4 % Extraction speed 6.9 X Track quality 100.0 % Test CRC BFFA8F41 Copy CRC BFFA8F41 Accurately ripped (confidence 1) [90EEC731] (AR v2) Copy OK
Track 3
Filename C:\_EAC\03. Intro.wav
Peak level 94.3 % Extraction speed 6.9 X Track quality 100.0 % Test CRC 6225C1E5 Copy CRC 6225C1E5 Accurately ripped (confidence 1) [C4DD7D33] (AR v2) Copy OK
Track 4
Filename C:\_EAC\04. African Shabtay.wav
Peak level 94.4 % Extraction speed 8.0 X Track quality 100.0 % Test CRC D1AA2F0B Copy CRC D1AA2F0B Accurately ripped (confidence 1) [22CB0DAF] (AR v2) Copy OK
Track 5
Filename C:\_EAC\05. Juke Joint.wav
Peak level 94.3 % Extraction speed 7.8 X Track quality 99.9 % Test CRC C6DCF568 Copy CRC C6DCF568 Accurately ripped (confidence 1) [D164967D] (AR v2) Copy OK
Track 6
Filename C:\_EAC\06. O'I Neckin.wav
Peak level 94.4 % Extraction speed 9.1 X Track quality 100.0 % Test CRC 4C0A1C77 Copy CRC 4C0A1C77 Accurately ripped (confidence 1) [1C94B7DC] (AR v2) Copy OK
Track 7
Filename C:\_EAC\07. Morning Star.wav
Peak level 94.4 % Extraction speed 10.1 X Track quality 100.0 % Test CRC 8DB2A057 Copy CRC 8DB2A057 Accurately ripped (confidence 1) [ED86C5C0] (AR v2) Copy OK
Track 8
Filename C:\_EAC\08. Agressive Hippies.wav
Peak level 94.4 % Extraction speed 7.3 X Track quality 99.9 % Test CRC 8504AC7F Copy CRC 8504AC7F Accurately ripped (confidence 1) [E494095B] (AR v2) Copy OK
Track 9
Filename C:\_EAC\09. Jambo.wav
Peak level 94.4 % Extraction speed 10.9 X Track quality 100.0 % Test CRC 0CD27CEC Copy CRC 0CD27CEC Accurately ripped (confidence 1) [D528551B] (AR v2) Copy OK
All tracks accurately ripped
No errors occurred
End of status report
---- CUETools DB Plugin V2.1.4
[CTDB TOCID: S.UqQUO.PguFZa2dSSXzpeOrOH4-] foundSubmit result: S.UqQUO.PguFZa2dSSXzpeOrOH4- has been confirmedTrack | CTDB Status 1 | (11/11) Accurately ripped 2 | (11/11) Accurately ripped 3 | (11/11) Accurately ripped 4 | (11/11) Accurately ripped 5 | (11/11) Accurately ripped 6 | (11/11) Accurately ripped 7 | (11/11) Accurately ripped 8 | (11/11) Accurately ripped 9 | (11/11) Accurately ripped
==== Log checksum 69007B43367B14BAD3AF993BA0B20DF4B0BBFC8C5DA92CE6FA9B6C2ACD05BAED ====

Содержание индексной карты (.CUE)

REM GENRE FusionREM DATE 2015REM DISCID 740C9709REM COMMENT "ExactAudioCopy v1.0b4"PERFORMER "Marbin"TITLE "Aggressive Hippies"FILE "01. Just Music.wav" WAVE TRACK 01 AUDIO TITLE "Just Music" PERFORMER "Marbin" INDEX 01 00:00:00FILE "02. Y'all are gpod.wav" WAVE TRACK 02 AUDIO TITLE "Y'all are gpod" PERFORMER "Marbin" INDEX 01 00:00:00FILE "03. Intro.wav" WAVE TRACK 03 AUDIO TITLE "Intro" PERFORMER "Marbin" INDEX 01 00:00:00FILE "04. African Shabtay.wav" WAVE TRACK 04 AUDIO TITLE "African Shabtay" PERFORMER "Marbin" INDEX 01 00:00:00FILE "05. Juke Joint.wav" WAVE TRACK 05 AUDIO TITLE "Juke Joint" PERFORMER "Marbin" INDEX 01 00:00:00FILE "06. O'I Neckin.wav" WAVE TRACK 06 AUDIO TITLE "O'I Neckin" PERFORMER "Marbin" INDEX 01 00:00:00FILE "07. Morning Star.wav" WAVE TRACK 07 AUDIO TITLE "Morning Star" PERFORMER "Marbin" INDEX 01 00:00:00FILE "08. Agressive Hippies.wav" WAVE TRACK 08 AUDIO TITLE "Agressive Hippies" PERFORMER "Marbin" INDEX 01 00:00:00FILE "09. Jambo.wav" WAVE TRACK 09 AUDIO TITLE "Jambo" PERFORMER "Marbin" INDEX 01 00:00:00

Лог проверки качества

-----------------------
DON'T MODIFY THIS FILE
-----------------------
PERFORMER: auCDtect Task Manager, ver. 1.6.0 RC1 build 1.6.0.1Copyright (c) 2008-2010 y-soft. All rights reservedhttp://y-soft.org
ANALYZER: auCDtect: CD records authenticity detector, version 0.8.2Copyright (c) 2004 Oleg Berngardt. All rights reserved.Copyright (c) 2004 Alexander Djourik. All rights reserved.
FILE: 01. Just Music.flac Size: 48787497 Hash: 7B1C6D8E29A4B1EB79C255E95BED83E3 Accuracy: -m0 Conclusion: CDDA 100% Signature: 512CFE319E8726319058A6E0669216F77A68DF2FFILE: 02. Y'all are gpod.flac Size: 47896870 Hash: 3E6E20B593C79610123D56FB659AE3AF Accuracy: -m0 Conclusion: CDDA 100% Signature: BF3125EC19E975935F6C6D275A4FBCE47A5B2344FILE: 03. Intro.flac Size: 17430444 Hash: 5998F0A2755393E228AD0022D0F5869C Accuracy: -m0 Conclusion: CDDA 99% Signature: 361D6481FCA866FFD294196003063EB0B70F5CABFILE: 04. African Shabtay.flac Size: 44940466 Hash: B6D005814B0FFEF44A8E470046F033DB Accuracy: -m0 Conclusion: CDDA 100% Signature: 541997D7BBB857E66B2719803FD981D06E259F13FILE: 05. Juke Joint.flac Size: 49314567 Hash: 8470155D117223F182CBCC178C9BF071 Accuracy: -m0 Conclusion: CDDA 100% Signature: 94999E06CB24DEFA6A9CA1D49E169809E67D2CE2FILE: 06. O'I Neckin.flac Size: 40416473 Hash: E44F7EC0975807FABB0A22739F5A405C Accuracy: -m0 Conclusion: CDDA 100% Signature: 18F8A76FB297293F3A049DD4E853431FC8A6F791FILE: 07. Morning Star.flac Size: 57716938 Hash: 180B7626006858AD7DFFE3D173DDB927 Accuracy: -m0 Conclusion: CDDA 100% Signature: 991C30C35FCF2E4ECD7302C3DCF157944127AB11FILE: 08. Agressive Hippies.flac Size: 19908051 Hash: 76C4789BF6F95E4288748E20D6088047 Accuracy: -m0 Conclusion: CDDA 100% Signature: BF90F2CA5762814A8186C1CD8794957190AEFBFAFILE: 09. Jambo.flac Size: 55721503 Hash: FC6E149DBD5CB31A10B3BE1D8BA6ADCB Accuracy: -m0 Conclusion: CDDA 100% Signature: 02E73BB3602A3093502594367F5AAEAF0725BC3F

DRM.log

-----------------------
DON'T MODIFY THIS FILE
-----------------------
PERFORMER: auCDtect Task Manager, ver. 1.6.0 RC1 build 1.6.0.1Copyright (c) 2008-2010 y-soft. All rights reservedhttp://y-soft.org
ANALYZER: auCDtect: CD records authenticity detector, version 0.8.2Copyright (c) 2004 Oleg Berngardt. All rights reserved.Copyright (c) 2004 Alexander Djourik. All rights reserved.
FILE: 01. Just Music.flac Size: 48787497 Hash: 7B1C6D8E29A4B1EB79C255E95BED83E3 Accuracy: -m0 Conclusion: CDDA 100% Signature: 512CFE319E8726319058A6E0669216F77A68DF2FFILE: 02. Y'all are gpod.flac Size: 47896870 Hash: 3E6E20B593C79610123D56FB659AE3AF Accuracy: -m0 Conclusion: CDDA 100% Signature: BF3125EC19E975935F6C6D275A4FBCE47A5B2344FILE: 03. Intro.flac Size: 17430444 Hash: 5998F0A2755393E228AD0022D0F5869C Accuracy: -m0 Conclusion: CDDA 99% Signature: 361D6481FCA866FFD294196003063EB0B70F5CABFILE: 04. African Shabtay.flac Size: 44940466 Hash: B6D005814B0FFEF44A8E470046F033DB Accuracy: -m0 Conclusion: CDDA 100% Signature: 541997D7BBB857E66B2719803FD981D06E259F13FILE: 05. Juke Joint.flac Size: 49314567 Hash: 8470155D117223F182CBCC178C9BF071 Accuracy: -m0 Conclusion: CDDA 100% Signature: 94999E06CB24DEFA6A9CA1D49E169809E67D2CE2FILE: 06. O'I Neckin.flac Size: 40416473 Hash: E44F7EC0975807FABB0A22739F5A405C Accuracy: -m0 Conclusion: CDDA 100% Signature: 18F8A76FB297293F3A049DD4E853431FC8A6F791FILE: 07. Morning Star.flac Size: 57716938 Hash: 180B7626006858AD7DFFE3D173DDB927 Accuracy: -m0 Conclusion: CDDA 100% Signature: 991C30C35FCF2E4ECD7302C3DCF157944127AB11FILE: 08. Agressive Hippies.flac Size: 19908051 Hash: 76C4789BF6F95E4288748E20D6088047 Accuracy: -m0 Conclusion: CDDA 100% Signature: BF90F2CA5762814A8186C1CD8794957190AEFBFAFILE: 09. Jambo.flac Size: 55721503 Hash: FC6E149DBD5CB31A10B3BE1D8BA6ADCB Accuracy: -m0 Conclusion: CDDA 100% Signature: 02E73BB3602A3093502594367F5AAEAF0725BC3F

Об альбоме (сборнике)

Marketed by Moonjune Music
Produced and arranged by Danny Markovitch and Dani Rabin
Recorded at Stone Soup Studio April 17-20, 2015.
Engineered by Errie Sills
Mixed & mastered by Brian Schwab

Состав

– Dani Rabin | Guitar
– Danny Markovitch | Saxophone
– John W. Lauter | Bass
– Greg Essig | Drums


[geo-torrent.biz]_t_5835270.torrent
Torrent: Registered ·  [ 2020-01-15 04:37 ] ·  eb58bb960bf5c062337eb7502aea4f7080db67ca

17 KB

Status: checked
Completed: 0 times
Size: 408 MB
Rating: 
(Votes: 0)
Say thanks: 0  Thanks
Похожие темы
[Profile]    [PM]
Display posts from previous:    
Reply to topic

The time now is: Today 15:04

All times are GMT + 7 Hours



You cannot post new topics in this forum
You cannot reply to topics in this forum
You cannot edit your posts in this forum
You cannot delete your posts in this forum
You cannot vote in polls in this forum
You cannot attach files in this forum
You can download files in this forum