Годен к нестроевой (Владимир Роговой) [1968, комедия, DVB, AVC]

Reply to topic
DL-List and Torrent activity [Update пиров]
Size:  4.99 GB   |    Registered:  2 months 7 days   |    Completed:  0 times

Seeder not seen: Never

 
   
 
 
 
Author Message

КЭП

Post 01-Feb-2020 22:32

[Quote]

Годен к нестроевой
Жанр: комедия
Год выхода: 1968
Продолжительность: 01:11:55
Режиссёр: Владимир Роговой
В ролях: Виктор Перевалов, Михаил Пуговкин, Борис Гитин, Алексей Чернов, Любовь Румянцева, Кахи Кавсадзе, Евгений Кузнецов
Описание: Великая Отечественная война. Молоденький музыкант из провинциального городка Володя Данилин после гибели отца уходит добровольцем на фронт. Поскольку из-за плохого зрения он не годен к строевой службе, его направляют в роту связи и назначают ездовым при норовистом коне Бесе.
Доп. информация: запись потока *.ts со спутника EUTELSAT 36A/B, 36° в.д., ремукс в *.mkv программой VideoReDo.
Качество видео: DVB
Формат файла: MKV
Видео: Advanced Video Codec, 1920x1080 (16:9), 25,000 кадров/сек, 9103 Кбит/сек
Аудио1: AC-3, 48,0 КГц, 448 Кбит/сек, 6 каналов
Аудио2: MPEG Audio, 48,0 КГц, 192 Кбит/сек, 2 канала

MediaInfo

Общее
Уникальный идентификатор : 169997668073984081701744214750646391797 (0x7FE45C2528286DD8C3E0E26E365653F5)
Полное имя : L:\Torrent\ГОДЕН К НЕСТРОЕВЙ (Любимое HD).mkv
Формат файла : Matroska
Версия формата : Version 2
Размер файла : 4,99 Гбайт
Продолжительность : 1 ч. 11 м.
Общий поток : 9940 Кбит/сек
Программа кодирования : Lavf54.63.104
Библиотека кодирования : Lavf54.63.104 / Lavf54.63.104
Видео
Идентификатор : 1
Формат файла : AVC
Формат файла/Информация : Advanced Video Codec
Профиль формата : Main@L4
Параметр CABAC формата : Да
Параметр ReFrames формата : 3 кадра
Параметр GOP формата : M=4, N=32
Идентификатор кодека : V_MPEG4/ISO/AVC
Продолжительность : 1 ч. 11 м.
Битрейт : 9103 Кбит/сек
Ширина : 1920 пикселей
Высота : 1080 пикселей
Соотношение сторон : 16:9
Режим частоты кадров : Постоянный
Частота кадров : 25,000 кадров/сек
Цветовое пространство : YUV
Субдискретизация насыщенности : 4:2:0
Битовая глубина : 8 бит
Тип развёртки : Чересстрочная
Метод сохранения типа развёртки : Раздельные поля
Порядок развёртки : Верхнее поле первое
Бит/(Пиксели*Кадры) : 0.176
Размер потока : 4,57 Гбайт (92%)
Default : Нет
Forced : Нет
Цветовой диапазон : Limited
Основные цвета : BT.709
Характеристики трансфера : BT.709
Коэффициенты матрицы : BT.709
Аудио #1
Идентификатор : 2
Формат файла : AC-3
Формат файла/Информация : Audio Coding 3
Расширение режима : CM (complete main)
Параметр Endianness формата : Big
Идентификатор кодека : A_AC3
Продолжительность : 1 ч. 11 м.
Вид битрейта : Постоянный
Битрейт : 448 Кбит/сек
Каналы : 6 каналов
Расположение каналов : Front: L C R, Side: L R, LFE
Частота : 48,0 КГц
Частота кадров : 31,250 кадров/сек (1536 spf)
Битовая глубина : 16 бит
Метод сжатия : С потерями
Размер потока : 230 Мбайт (5%)
Язык : Russian
Default : Да
Forced : Нет
Аудио #2
Идентификатор : 3
Формат файла : MPEG Audio
Версия формата : Version 1
Профиль формата : Layer 2
Идентификатор кодека : A_MPEG/L2
Идентификатор кодека/Подсказка : MP2
Продолжительность : 1 ч. 11 м.
Вид битрейта : Постоянный
Битрейт : 192 Кбит/сек
Каналы : 2 канала
Частота : 48,0 КГц
Метод сжатия : С потерями
Размер потока : 98,8 Мбайт (2%)
Язык : Russian
Default : Нет
Forced : Нет


[geo-torrent.biz]_t_5841665.torrent
Torrent: Registered ·  [ 2020-02-01 22:32 ] ·  7f633e935ee47f0398cdce40c852794f53d77ad8

25 KB

Status: checked
Completed: 0 times
Size: 4.99 GB
Rating: 
(Votes: 0)
Say thanks: 0  Thanks
Похожие темы
[Profile]    [PM]
Display posts from previous:    
Reply to topic

The time now is: Today 14:28

All times are GMT + 7 Hours



You cannot post new topics in this forum
You cannot reply to topics in this forum
You cannot edit your posts in this forum
You cannot delete your posts in this forum
You cannot vote in polls in this forum
You cannot attach files in this forum
You can download files in this forum